Универсальный солдат / Universal Soldier (1992) UHD BDRemux 2160p | 4K | HDR | Dolby Vision | P скачать торрент

Вы посетили страницу нашего torrent трекера и теперь имеете возможность скачать бесплатно через торрент Универсальный солдат / Universal Soldier (1992) UHD BDRemux 2160p | 4K | HDR | Dolby Vision | P в хорошем качестве. Только лучшие релизы, на свободном torrent трекере.

Все раздачи мультитрекерные, даже при нуле сидов, можно качать на максимальной скорости. Скорость скачивания без ограничений !!!

DL-List and Torrent activity [Update пиров]
Size:  58.24 GB   |    Registered:  1 month 3 days   |    Completed:  0 times
Seeders:  2  [  0 KB/s  ]   Show peers in full details
 
   
 
 
 

briqada ®

Gender:
Unknown
Longevity:
2 years 11 months
Posts:
3288


Информация о фильме
Название: Универсальный солдат
Оригинальное название: Universal Soldier
Год выхода: 1992
Жанр: Фантастика, боевик, драма
Режиссер: Роланд Эммерих
В ролях: Жан-Клод Ван Дамм, Дольф Лундгрен, Элли Уокер, Эд О’Росс, Джерри Орбак, Леон Риппи, Тико Уэллс, Ральф Мёллер, Роберт Требор, Джин Дэвис, Дрю Снайдер, Томми Листер, Саймон Ри, Эрик Норрис, Майкл Уинтер, Джозеф Мэлоун, Рэнс Ховард, Лилиан Шовин, Джоэнн Барон, Люпе Онтиверос, Джек Мур, Джон Стори, Брэдфорд Бэнкрофт, Томас Розалес мл., Трини Трэн, Тай Тхай, Рэйчел Вагнер, Брэндон Лэмдин, Нед Беллами, Пол Рачовски, Дэниэл Деморест, Тэннер Гилл, Эдди Браун, Уолтер Роблз, Джофри С. Браун, Донна Харди, Леон Делани, Джордж Фишер, Дэвид Эфрон, Мирон Л. Лапка
О фильме:
Вьетнам, 1969 год, первая стычка двух американских солдат — Люка и Скотта: Люк не может стрелять в безоружных людей, Скотт же готов убивать и убивать с нечеловечески-яростной жестокостью, о которой свидетельствует ожерелье из ушей, отрезанных им у вьетнамцев. Спустя годы Люк и Скотт вновь оказываются в одном отряде — спецподразделении «универсальных солдат», которых бросают на выполнение самых опасных заданий (например, на ликвидацию террористов). «Универсального солдата» можно попытаться убить, но он будет подниматься вновь и вновь, и если понадобится, то ученые, работающие над сверхсекретным военным проектом, в специальной лаборатории займутся оживлением серьезно пострадавшего «универсала». Однако, даже зная об этом, Скотт с упорством маньяка будет преследовать Люка, чтобы сойтись с ним в решающем поединке не на жизнь, а на смерть.

Страна: США
Студия: Carolco Pictures Inc., Centropolis Film Productions, IndieProd Company Productions, Studio Canal
Продолжительность: 01:43:20
Перевод: Профессиональный многоголосый
Файл
Кодек: HEVC
Качество: UHD BDRemux 2160p
Видео: 64,0 Мбит/сек, 3840x2160, 24fps
Звук: AC-3, 640kbps, 6ch
Субтитры: Русские (Forced)

Скриншоты

Релиз

Релиз предназначен для воспроизведения фильма в Dolby Vision на встроенном плеере телевизора. Так же данный тип файлов .мр4 воспроизводится на многих медиаплеерах (ТВ приставках). Перевод для релиза вытащен из онлайн - кинотеатра IVI. Протестировано на LG 55B8

Media info

Формат : MPEG-4
Профиль формата : Base Media / Version 2
Идентификатор кодека : mp42 (mp42/dby1/isom)
Размер файла : 58,2 Гбайт
Продолжительность : 1 ч. 43 м.
Общий поток : 80,7 Мбит/сек
Дата кодирования : UTC 2019-11-05 09:13:22
Дата пометки : UTC 2019-11-05 09:13:22
Видео #1
Идентификатор : 1
Формат : HEVC
Формат/Информация : High Efficiency Video Coding
Профиль формата : Main [email protected]@High
HDR_Format/String : SMPTE ST 2086, HDR10 compatible
Идентификатор кодека : hev1
Идентификатор кодека/Информация : High Efficiency Video Coding
Продолжительность : 1 ч. 43 м.
Битрейт : 64,0 Мбит/сек
Ширина : 3840 пикселей
Высота : 2160 пикселей
Соотношение сторон : 16:9
Режим частоты кадров : Постоянный
Частота кадров : 24,000 кадра/сек
Цветовое пространство : YUV
Субдискретизация насыщенности : 4:2:0 (Type 2)
Битовая глубина : 10 бит
Бит/(Пиксели*Кадры) : 0.322
Размер потока : 46,2 Гбайт (79%)
Default : Нет
Дата кодирования : UTC 2019-11-05 09:13:22
Дата пометки : UTC 2019-11-05 09:13:22
Цветовой диапазон : Limited
Основные цвета : BT.2020
Характеристики трансфера : PQ
Коэффициенты матрицы : BT.2020 non-constant
MasteringDisplay_ColorPrimaries : Display P3
MasteringDisplay_Luminance : min: 0.0001 cd/m2, max: 1000 cd/m2
MaxCLL : 818 cd/m2
MaxFALL : 554 cd/m2
Codec configuration box : hvcC
Видео #2
Идентификатор : 2
Формат : HEVC
Формат/Информация : High Efficiency Video Coding
Профиль формата : Main [email protected]@High
HDR_Format/String : Dolby Vision, Version 1.0, dvhe.07.06, EL+RPU / SMPTE ST 2086, HDR10 compatible
Идентификатор кодека : dvhe
Идентификатор кодека/Информация : High Efficiency Video Coding with Dolby Vision
Продолжительность : 1 ч. 43 м.
Битрейт : 16,0 Мбит/сек
Ширина : 1920 пикселей
Высота : 1080 пикселей
Соотношение сторон : 16:9
Режим частоты кадров : Постоянный
Частота кадров : 24,000 кадра/сек
Цветовое пространство : YUV
Субдискретизация насыщенности : 4:2:0 (Type 2)
Битовая глубина : 10 бит
Бит/(Пиксели*Кадры) : 0.322
Размер потока : 11,6 Гбайт (20%)
Default : Нет
Дата кодирования : UTC 2019-11-05 09:13:22
Дата пометки : UTC 2019-11-05 09:13:22
Цветовой диапазон : Limited
Основные цвета : BT.2020
Характеристики трансфера : PQ
Коэффициенты матрицы : BT.2020 non-constant
MasteringDisplay_ColorPrimaries : Display P3
MasteringDisplay_Luminance : min: 0.0001 cd/m2, max: 1000 cd/m2
Codec configuration box : hvcC+dvcC
Аудио
Идентификатор : 3
Формат : AC-3
Формат/Информация : Audio Coding 3
Коммерческое название : Dolby Digital
Идентификатор кодека : ac-3
Продолжительность : 1 ч. 43 м.
Вид битрейта : Постоянный
Битрейт : 640 Кбит/сек
Каналы : 6 каналов
ChannelLayout : L R C LFE Ls Rs
Частота : 48,0 КГц
Частота кадров : 31,250 кадров/сек (1536 SPF)
Битовая глубина : 16 бит
Метод сжатия : С потерями
Размер потока : 473 Мбайт (1%)
ServiceKind/String : Complete Main
Default : Нет
Дата кодирования : UTC 2019-11-05 09:13:22
Дата пометки : UTC 2019-11-05 09:13:22

[fromtorrents.site].t69488.torrent 
Torrent: Registered [ 2019-11-06 14:20 ] · 285A59660AC9981B584909A36D85B4F8ADEA3882

Download .torrent

147 KB

Status: checked
Completed: 0 times
Size: 58.24 GB
Rate: 
(Vote: 0)
Have thanked: 0  Thanks

Скачать через торрент Универсальный солдат / Universal Soldier (1992) UHD BDRemux 2160p | 4K | HDR | Dolby Vision | P в хорошем качестве бесплатно


terms.php
Display posts:    

Current time is: 09-Dec 21:52

All times are UTC + 4



You cannot post new topics in this forum
You cannot reply to topics in this forum
You cannot edit your posts in this forum
You cannot delete your posts in this forum
You cannot vote in polls in this forum
You cannot attach files in this forum
You can download files in this forum

Скачать через торрент фильмы 4K Ultra HD 2160p бесплатно, на первом свободном torrent трекере без надоедливой рекламы. Качаем без ограничений, рейтингов и прочих трудностей. Ищите любимый сериал, у нас вы найдёте множество сериалов, фильмов, игр, музыки. Скачать торрентом не составит труда даже не опытному пользователю. Все торрент файлы доступны к скачиванию любому пользователю бесплатно. Переходи на freetorrent и качай по полной без регистрации и ограничений. И не забудьте поделиться ссылкой на наш сайт - мы будем очень благодарны. Это даёт нам сил и заряда для жизни проекта.

Ежедневно в мир выходит столько новых картин, что уследить за всеми просто не представляется возможным. На нашем крупнейшем русскоязычном торрент трекере вы сможете без труда скачать фильмы 4к через торрент бесплатно новинки фильмов, не проходя утомительную регистрацию с подтверждением в смс, без назойливой рекламы и перехода по подозрительным ссылкам, все желаемые файлы находятся в открытом доступе и доступны к загрузке без начисления рейтинга. Скачать новинки выгодно не только в финансовом плане, любую загруженную киноленту можно посмотреть в удобное время и в высоком качестве. Самая лучшая подборка кино фильмов 60 fps | UHD 2160p | 4K утолит желание каждого киномана, каталог постоянно пополняется только лучшими релизами. У нас представлена огромная коллекция как недавно вышедших новинок, так и давно полюбившихся бестселлеров. Для того, чтобы получить файл, вам стоит лишь перейти на вкладку искомого материала и скачать нужный торрент и подождать, пока программа перенесет полнометражную картину на компьютер. Главная страница послужит путеводителем и афишей, где можно за несколько минут найти необходимое. Первый русский свободный торрент сделан с максимальным комфортом для пользователя, не нужно тратить время на изучение интерфейса. Желаем вам приятного просмотра! Постоянное обновление и пополнение - новинками популярных игр, новый и безопасный софт, мультимедиа кпк Свободный торрент трекер.