Экзистенция / eXistenZ (1999) BDRemux 1080p | A, P2, L1 | UK Transfer скачать торрент

Вы посетили страницу нашего torrent трекера и теперь имеете возможность скачать бесплатно через торрент Экзистенция / eXistenZ (1999) BDRemux 1080p | A, P2, L1 | UK Transfer в хорошем качестве. Только лучшие релизы, на свободном torrent трекере.

Все раздачи мультитрекерные, даже при нуле сидов, можно качать на максимальной скорости. Скорость скачивания без ограничений !!!

DL-List and Torrent activity [Update пиров]
Size:  25.77 GB   |    Registered:  1 month   |    Completed:  0 times

Seeder not seen: Never

 
   
 
 
 

briqada ®

Gender:
Unknown
Longevity:
2 years 11 months
Posts:
3288

Название: Экзистенция
Оригинальное название: eXistenZ
Год выхода: 1999
Жанр: фантастика, триллер
Режиссер: Дэвид Кроненберг
В ролях: Дженнифер Джейсон Ли, Джуд Лоу, Иэн Холм, Уиллем Дефо, Дон МакКеллар, Каллум Кит Ренни, Кристофер Экклстон, Сара Полли, Роберт А. Силверман, Оскар Хсю-О фильме:
На закрытой презентации игры виртуальной реальности под названием «Экзистенция» на ее великолепную создательницу Аллегру Гелла совершает покушение сумасшедший убийца, который хочет уничтожить и ее игру! Вынужденная спасаться бегством, Аллегра подключает младшего сотрудника к тестированию поврежденной системы тем, что … убеждает его сыграть в Экзистенцию вместе с ней! События разворачиваются так, что угроза их реальной жизни пересекается с виртуальными событиями в игре.

Страна: Канада, Великобритания, Франция
Продолжительность: 01:37:09
Перевод: Авторский (одноголосый), профессиональный (двухголосый), любительский (одноголосый)-Качество: BDRemux 1080p
Видео: MPEG-4 AVC, 1920x1080 (16:9), 20.0 Mbps, 23.976 fps
Звук:
№ 1: DTS-HD MA | 5.1 | 48.0 kHz | 3970 kbps - Авторский Михаил Яроцкий #039;Kyberpunk#039;
№ 2: DTS-HD MA | 5.1 | 48.0 kHz | 2062 kbps - Авторский Андрей Гаврилов
№ 3: DTS-HD MA | 5.1 | 48.0 kHz | 2064 kbps - Авторский Юрий Живов
№ 4: DTS-HD MA | 5.1 | 48.0 kHz | 2064 kbps - Двухголосый, закадровый Cinema Prestige
№ 5: AC3 | 2.0 | 48.0 kHz | 192 kbps - Любительский
№ 6: AC3 | 2.0 | 48.0 kHz | 192 kbps - Двухголосый, закадровый 1+1 / Ukrainian
№ 7: PCM | 5.1 | 48.0 kHz | 4608 kbps - English (UK Blu-Ray)
№ 8: DTS-HD MA | 5.1 | 48.0 kHz | 2051 kbps - English (GER Blu-Ray)
№ 9: AC3 | 2.0 | 48.0 kHz | 192 kbps - English / Commentary #1
№ 10: AC3 | 2.0 | 48.0 kHz | 192 kbps - English / Commentary #2
№ 11: AC3 | 2.0 | 48.0 kHz | 192 kbps - English / Commentary #3
№ 12: AC3 | 2.0 | 48.0 kHz | 192 kbps - English / Commentary #4
Субтитры: Русские, английские

MI

General
Unique ID : 291249596540487231199184705048786516471 (0xDB1CA1C5F47665DA62B1A1440D4039F7)
Complete name : C:MKV-iP27eXistenZ.1999.BDRemux.[iP27].mkv
Format : Matroska
Format version : Version 4
File size : 25.8 GiB
Duration : 1 h 37 min
Overall bit rate mode : Variable
Overall bit rate : 38.0 Mb/s
Movie name : eXistenZ (Экзистенция) 1999 - [iP27]
Encoded date : UTC 2019-11-09 08:47:46
Writing application : mkvmerge v39.0.0 (#039;In The Waiting Line#039;) 64-bit
Writing library : libebml v1.3.9 + libmatroska v1.5.2
Video
ID : 1
Format : AVC
Format/Info : Advanced Video Codec
Format profile : [email protected]
Format settings : CABAC / 4 Ref Frames
Format settings, CABAC : Yes
Format settings, Reference frames : 4 frames
Format settings, GOP : M=3, N=24
Codec ID : V_MPEG4/ISO/AVC
Duration : 1 h 37 min
Bit rate mode : Variable
Bit rate : 20.0 Mb/s
Maximum bit rate : 35.0 Mb/s
Width : 1 920 pixels
Height : 1 080 pixels
Display aspect ratio : 16:9
Frame rate mode : Constant
Frame rate : 23.976 (24000/1001) FPS
Standard : NTSC
Color space : YUV
Chroma subsampling : 4:2:0
Bit depth : 8 bits
Scan type : Progressive
Bits/(Pixel*Frame) : 0.402
Stream size : 13.6 GiB (53%)
Title : eXistenZ 1999 1080p GBR Blu-ray AVC LPCM 5.1-CultFilms™
Language : English
Default : Yes
Forced : No
Color range : Limited
Color primaries : BT.709
Transfer characteristics : BT.709
Matrix coefficients : BT.709
Audio #1
ID : 2
Format : DTS XLL
Format/Info : Digital Theater Systems
Commercial name : DTS-HD Master Audio
Codec ID : A_DTS
Duration : 1 h 37 min
Bit rate mode : Variable
Bit rate : 3 970 kb/s
Channel(s) : 6 channels
Channel layout : C L R Ls Rs LFE
Sampling rate : 48.0 kHz
Frame rate : 93.750 FPS (512 SPF)
Bit depth : 24 bits
Compression mode : Lossless
Stream size : 2.69 GiB (10%)
Title : AVO (М. Яроцкий #039;kyberpunk#039;)
Language : Russian
Default : Yes
Forced : No
Audio #2
ID : 3
Format : DTS XLL
Format/Info : Digital Theater Systems
Commercial name : DTS-HD Master Audio
Codec ID : A_DTS
Duration : 1 h 37 min
Bit rate mode : Variable
Bit rate : 2 062 kb/s
Channel(s) : 6 channels
Channel layout : C L R Ls Rs LFE
Sampling rate : 48.0 kHz
Frame rate : 93.750 FPS (512 SPF)
Bit depth : 16 bits
Compression mode : Lossless
Stream size : 1.40 GiB (5%)
Title : AVO (А. Гаврилов)
Language : Russian
Default : No
Forced : No
Audio #3
ID : 4
Format : DTS XLL
Format/Info : Digital Theater Systems
Commercial name : DTS-HD Master Audio
Codec ID : A_DTS
Duration : 1 h 37 min
Bit rate mode : Variable
Bit rate : 2 064 kb/s
Channel(s) : 6 channels
Channel layout : C L R Ls Rs LFE
Sampling rate : 48.0 kHz
Frame rate : 93.750 FPS (512 SPF)
Bit depth : 16 bits
Compression mode : Lossless
Stream size : 1.40 GiB (5%)
Title : AVO (Ю. Живов)
Language : Russian
Default : No
Forced : No
Audio #4
ID : 5
Format : DTS XLL
Format/Info : Digital Theater Systems
Commercial name : DTS-HD Master Audio
Codec ID : A_DTS
Duration : 1 h 37 min
Bit rate mode : Variable
Bit rate : 2 064 kb/s
Channel(s) : 6 channels
Channel layout : C L R Ls Rs LFE
Sampling rate : 48.0 kHz
Frame rate : 93.750 FPS (512 SPF)
Bit depth : 16 bits
Compression mode : Lossless
Stream size : 1.40 GiB (5%)
Title : DVO (Cinema Prestige)
Language : Russian
Default : No
Forced : No
Audio #5
ID : 6
Format : AC-3
Format/Info : Audio Coding 3
Commercial name : Dolby Digital
Codec ID : A_AC3
Duration : 1 h 37 min
Bit rate mode : Constant
Bit rate : 192 kb/s
Channel(s) : 2 channels
Channel layout : L R
Sampling rate : 48.0 kHz
Frame rate : 31.250 FPS (1536 SPF)
Compression mode : Lossy
Stream size : 133 MiB (1%)
Title : VO
Language : Russian
Service kind : Complete Main
Default : No
Forced : No
Audio #6
ID : 7
Format : AC-3
Format/Info : Audio Coding 3
Commercial name : Dolby Digital
Codec ID : A_AC3
Duration : 1 h 37 min
Bit rate mode : Constant
Bit rate : 192 kb/s
Channel(s) : 2 channels
Channel layout : L R
Sampling rate : 48.0 kHz
Frame rate : 31.250 FPS (1536 SPF)
Compression mode : Lossy
Stream size : 133 MiB (1%)
Title : DVO (1+1)
Language : Ukrainian
Service kind : Complete Main
Default : No
Forced : No
Audio #7
ID : 8
Format : PCM
Format settings : Little / Signed
Codec ID : A_PCM/INT/LIT
Duration : 1 h 37 min
Bit rate mode : Constant
Bit rate : 4 608 kb/s
Channel(s) : 6 channels
Sampling rate : 48.0 kHz
Frame rate : 32.000 FPS (1500 SPF)
Bit depth : 16 bits
Stream size : 3.13 GiB (12%)
Title : Original (UK Blu-Ray)
Language : English
Default : No
Forced : No
Audio #8
ID : 9
Format : DTS XLL
Format/Info : Digital Theater Systems
Commercial name : DTS-HD Master Audio
Codec ID : A_DTS
Duration : 1 h 37 min
Bit rate mode : Variable
Bit rate : 2 051 kb/s
Channel(s) : 6 channels
Channel layout : C L R Ls Rs LFE
Sampling rate : 48.0 kHz
Frame rate : 93.750 FPS (512 SPF)
Bit depth : 16 bits
Compression mode : Lossless
Stream size : 1.39 GiB (5%)
Title : Original (GER Blu-Ray)
Language : English
Default : No
Forced : No
Audio #9
ID : 10
Format : AC-3
Format/Info : Audio Coding 3
Commercial name : Dolby Digital
Codec ID : A_AC3
Duration : 1 h 37 min
Bit rate mode : Constant
Bit rate : 192 kb/s
Channel(s) : 2 channels
Channel layout : L R
Sampling rate : 48.0 kHz
Frame rate : 31.250 FPS (1536 SPF)
Compression mode : Lossy
Stream size : 133 MiB (1%)
Title : Commentary #1
Language : English
Service kind : Complete Main
Default : No
Forced : No
Audio #10
ID : 11
Format : AC-3
Format/Info : Audio Coding 3
Commercial name : Dolby Digital
Codec ID : A_AC3
Duration : 1 h 37 min
Bit rate mode : Constant
Bit rate : 192 kb/s
Channel(s) : 2 channels
Channel layout : L R
Sampling rate : 48.0 kHz
Frame rate : 31.250 FPS (1536 SPF)
Compression mode : Lossy
Stream size : 133 MiB (1%)
Title : Commentary #2
Language : English
Service kind : Complete Main
Default : No
Forced : No
Audio #11
ID : 12
Format : AC-3
Format/Info : Audio Coding 3
Commercial name : Dolby Digital
Codec ID : A_AC3
Duration : 1 h 37 min
Bit rate mode : Constant
Bit rate : 192 kb/s
Channel(s) : 2 channels
Channel layout : L R
Sampling rate : 48.0 kHz
Frame rate : 31.250 FPS (1536 SPF)
Compression mode : Lossy
Stream size : 133 MiB (1%)
Title : Commentary #3
Language : English
Service kind : Complete Main
Default : No
Forced : No
Audio #12
ID : 13
Format : AC-3
Format/Info : Audio Coding 3
Commercial name : Dolby Digital
Codec ID : A_AC3
Duration : 1 h 37 min
Bit rate mode : Constant
Bit rate : 192 kb/s
Channel(s) : 2 channels
Channel layout : L R
Sampling rate : 48.0 kHz
Frame rate : 31.250 FPS (1536 SPF)
Compression mode : Lossy
Stream size : 133 MiB (1%)
Title : Commentary #4
Language : English
Service kind : Complete Main
Default : No
Forced : No
Text #1
ID : 14
Format : UTF-8
Codec ID : S_TEXT/UTF8
Codec ID/Info : UTF-8 Plain Text
Duration : 1 h 32 min
Bit rate : 76 b/s
Count of elements : 854
Stream size : 52.3 KiB (0%)
Language : Russian
Default : No
Forced : No
Text #2
ID : 15
Format : UTF-8
Codec ID : S_TEXT/UTF8
Codec ID/Info : UTF-8 Plain Text
Duration : 1 h 30 min
Bit rate : 48 b/s
Count of elements : 1029
Stream size : 32.0 KiB (0%)
Language : English
Default : No
Forced : No
Menu
00:00:00.000 : en:Chapter 01
00:03:27.207 : en:Chapter 02
00:10:26.626 : en:Chapter 03
00:20:14.213 : en:Chapter 04
00:27:01.620 : en:Chapter 05
00:32:59.978 : en:Chapter 06
00:38:32.310 : en:Chapter 07
00:46:08.766 : en:Chapter 08
00:50:41.038 : en:Chapter 09
00:56:17.374 : en:Chapter 10
01:02:01.718 : en:Chapter 11
01:10:52.248 : en:Chapter 12
01:18:25.701 : en:Chapter 13
01:23:56.031 : en:Chapter 14
01:27:43.258 : en:Chapter 15
01:34:02.762 : en:Chapter 16

Скриншоты

Примечание

За перевод М. Яроцкого и сборку дороги благодарим Xxx22.
Дорожка № 4 собрана наложением выделенных голосов на центр английской. Дорожки №№ 2-3 собраны наложением чистых голосов на центр английской. Спасибо djamb при поддержке zlodei24 / .
Дорожка с любительским переводом синхронизирована и наложена ale_x2008. За оцифрованную с VHS дорожку благодарим d_rocker.
За субтитры спасибо unipan.
За украинскую дорожку благодарность сайту Hurtom.

[fromtorrents.site].t69619.torrent 
Torrent: Registered [ 2019-11-09 19:50 ] · 8B88AEAF408D489E23B0D42A75AD88B5CB18EB0C

Download .torrent

65 KB

Status: checked
Completed: 0 times
Size: 25.77 GB
Rate: 
(Vote: 0)
Have thanked: 0  Thanks

Скачать через торрент Экзистенция / eXistenZ (1999) BDRemux 1080p | A, P2, L1 | UK Transfer в хорошем качестве бесплатно


terms.php
Display posts:    

Current time is: 09-Dec 22:23

All times are UTC + 4



You cannot post new topics in this forum
You cannot reply to topics in this forum
You cannot edit your posts in this forum
You cannot delete your posts in this forum
You cannot vote in polls in this forum
You cannot attach files in this forum
You can download files in this forum

Скачать через торрент фильмы 4K Ultra HD 2160p бесплатно, на первом свободном torrent трекере без надоедливой рекламы. Качаем без ограничений, рейтингов и прочих трудностей. Ищите любимый сериал, у нас вы найдёте множество сериалов, фильмов, игр, музыки. Скачать торрентом не составит труда даже не опытному пользователю. Все торрент файлы доступны к скачиванию любому пользователю бесплатно. Переходи на freetorrent и качай по полной без регистрации и ограничений. И не забудьте поделиться ссылкой на наш сайт - мы будем очень благодарны. Это даёт нам сил и заряда для жизни проекта.

Ежедневно в мир выходит столько новых картин, что уследить за всеми просто не представляется возможным. На нашем крупнейшем русскоязычном торрент трекере вы сможете без труда скачать фильмы 4к через торрент бесплатно новинки фильмов, не проходя утомительную регистрацию с подтверждением в смс, без назойливой рекламы и перехода по подозрительным ссылкам, все желаемые файлы находятся в открытом доступе и доступны к загрузке без начисления рейтинга. Скачать новинки выгодно не только в финансовом плане, любую загруженную киноленту можно посмотреть в удобное время и в высоком качестве. Самая лучшая подборка кино фильмов 60 fps | UHD 2160p | 4K утолит желание каждого киномана, каталог постоянно пополняется только лучшими релизами. У нас представлена огромная коллекция как недавно вышедших новинок, так и давно полюбившихся бестселлеров. Для того, чтобы получить файл, вам стоит лишь перейти на вкладку искомого материала и скачать нужный торрент и подождать, пока программа перенесет полнометражную картину на компьютер. Главная страница послужит путеводителем и афишей, где можно за несколько минут найти необходимое. Первый русский свободный торрент сделан с максимальным комфортом для пользователя, не нужно тратить время на изучение интерфейса. Желаем вам приятного просмотра! Постоянное обновление и пополнение - новинками популярных игр, новый и безопасный софт, мультимедиа кпк Свободный торрент трекер.