Легионер / Legionnaire (1998) BDRip 1080p | P2, A скачать торрент

Вы посетили страницу нашего torrent трекера и теперь имеете возможность скачать бесплатно через торрент Легионер / Legionnaire (1998) BDRip 1080p | P2, A в хорошем качестве. Только лучшие релизы, на свободном torrent трекере.

Все раздачи мультитрекерные, даже при нуле сидов, можно качать на максимальной скорости. Скорость скачивания без ограничений !!!

DL-List and Torrent activity [Update пиров]
Size:  7.95 GB   |    Registered:  3 months 29 days   |    Completed:  0 times

Seeder not seen: Never

 
   
 
 
 

rico ®

Gender:
Male
Longevity:
3 years 3 months
Posts:
5314

Информация о фильме
Название: Легионер
Оригинальное название: Legionnaire
Год выхода: 1998
Жанр: Боевик, драма, приключения, военный
Режиссер: Питер МакДональд
В ролях: Жан-Клод Ван Дамм, Адеэйл Акинновье-Агбайе, Стивен Беркофф, Николас Фэррелл, Джим Картер, Ана Софренович, Даниэль Калтаджироне, Джозеф Лонг, Марио Калли, Джо Монтана
О фильме:
Профессиональный боксер Ален Лефевр по указанию босса местной мафии должен проиграть свой очередной бой. Но у Лефевра другие планы. Более того, он собирается сбежать с любовницей босса. Однако задуманное срывается и загнанный в угол беглец находит единственный способ спасения своей жизни – вступить в ряды французского Иностранного Легиона. Оказавшись в Марокко, за тысячи километров от Парижа, Лефевр, к сожалению, понимает что его проблемы только начинаются…

Страна: США
Студия: Edward R. Pressman Film Corporation, Long Road Productions, Quadra Entertainment
Продолжительность: 01:38:29
Перевод: Профессиональный (двухголосый, закадровый) + Авторский (одноголосый, закадровый) Андрей Гаврилов + Оригинал
Файл
Кодек: x264
Качество: BDRip 1080p (источник: BLUEBIRD / Blu-ray Disc / 1080p)
Видео: 1920х820 (2.35:1), 10280 Kbps, 24.000 fps, 0.272 bit/pixel
Аудио #1: 48.0 kHz, AC3 Dolby Digital, 3/2 (L,C,R,l,r) + LFE ch, 448 kbps [Двухголосый]
Аудио #2: 48.0 kHz, AC3 Dolby Digital, 2/0 (L,R) ch, 192 kbps [Авторский, А. Гаврилов]
Аудио #3: 48.0 kHz, AC3 Dolby Digital, 2/0 (L,R) ch, 640 kbps [Английский]
Субтитры: Русские

x264

x264 [info]: frame I:1156 Avg QP:17.58 size:171502
x264 [info]: frame P:33252 Avg QP:20.25 size: 73864
x264 [info]: frame B:107401 Avg QP:21.05 size: 45970

MediaInfo

General
Unique ID : 189409978102942409524789221644052123496 (0x8E7F08EC8BFF760A989D6F200B16CF68)
Complete name : E:Legionnaire.1998.x264.BDRip.1080p.mkv
Format : Matroska
Format version : Version 4 / Version 2
File size : 7.95 GiB
Duration : 1h 38mn
Overall bit rate : 11.6 Mbps
Encoded date : UTC 2013-02-10 06:02:34
Writing application : mkvmerge v6.0.0 (#039;Coming Up For Air#039;) built on Jan 20 2013 09:52:00
Writing library : libebml v1.3.0 + libmatroska v1.4.0
Video
ID : 1
Format : AVC
Format/Info : Advanced Video Codec
Format profile : [email protected]
Format settings, CABAC : Yes
Format settings, ReFrames : 5 frames
Codec ID : V_MPEG4/ISO/AVC
Duration : 1h 38mn
Bit rate : 10.3 Mbps
Width : 1 920 pixels
Height : 820 pixels
Display aspect ratio : 2.35:1
Frame rate mode : Constant
Frame rate : 24.000 fps
Color space : YUV
Chroma subsampling : 4:2:0
Bit depth : 8 bits
Scan type : Progressive
Bits/(Pixel*Frame) : 0.272
Stream size : 6.91 GiB (87%)
Writing library : x264 core 129 r2245 bc13772
Encoding settings : cabac=1 / ref=5 / deblock=1:-3:-3 / analyse=0x3:0x133 / me=tesa / subme=11 / psy=1 / psy_rd=1.02:0.10 / mixed_ref=1 / me_range=32 / chroma_me=1 / trellis=2 / 8x8dct=1 / cqm=0 / deadzone=21,11 / fast_pskip=0 / chroma_qp_offset=-3 / threads=12 / lookahead_threads=2 / sliced_threads=0 / nr=0 / decimate=0 / interlaced=0 / bluray_compat=0 / constrained_intra=0 / bframes=5 / b_pyramid=2 / b_adapt=2 / b_bias=0 / direct=3 / weightb=1 / open_gop=0 / weightp=2 / keyint=240 / keyint_min=23 / scenecut=40 / intra_refresh=0 / rc_lookahead=60 / rc=2pass / mbtree=1 / bitrate=10280 / ratetol=1.0 / qcomp=0.60 / qpmin=0 / qpmax=69 / qpstep=4 / cplxblur=20.0 / qblur=0.5 / ip_ratio=1.40 / aq=1:1.00
Language : English
Default : Yes
Forced : No
Audio #1
ID : 2
Format : AC-3
Format/Info : Audio Coding 3
Mode extension : CM (complete main)
Format settings, Endianness : Big
Codec ID : A_AC3
Duration : 1h 38mn
Bit rate mode : Constant
Bit rate : 448 Kbps
Channel(s) : 6 channels
Channel positions : Front: L C R, Side: L R, LFE
Sampling rate : 48.0 KHz
Bit depth : 16 bits
Compression mode : Lossy
Stream size : 316 MiB (4%)
Title : AC3 5.1ch 448 kbps - Двухголосый
Language : Russian
Default : Yes
Forced : No
Audio #2
ID : 3
Format : AC-3
Format/Info : Audio Coding 3
Mode extension : CM (complete main)
Format settings, Endianness : Big
Codec ID : A_AC3
Duration : 1h 38mn
Bit rate mode : Constant
Bit rate : 192 Kbps
Channel(s) : 2 channels
Channel positions : Front: L R
Sampling rate : 48.0 KHz
Bit depth : 16 bits
Compression mode : Lossy
Stream size : 135 MiB (2%)
Title : AC3 2.0ch 192 kbps - Авторский, А. Гаврилов
Language : Russian
Default : No
Forced : No
Audio #3
ID : 4
Format : AC-3
Format/Info : Audio Coding 3
Mode extension : CM (complete main)
Format settings, Endianness : Big
Codec ID : A_AC3
Duration : 1h 38mn
Bit rate mode : Constant
Bit rate : 640 Kbps
Channel(s) : 2 channels
Channel positions : Front: L R
Sampling rate : 48.0 KHz
Bit depth : 16 bits
Compression mode : Lossy
Stream size : 451 MiB (6%)
Title : AC3 2.0ch 640 kbps - Английский
Language : English
Default : No
Forced : No
Text
ID : 5
Format : UTF-8
Codec ID : S_TEXT/UTF8
Codec ID/Info : UTF-8 Plain Text
Title : Русские
Language : Russian
Default : No
Forced : No
Menu
00:00:00.000 : en:
00:10:00.208 : en:
00:17:06.750 : en:
00:21:28.625 : en:
00:28:17.750 : en:
00:35:39.166 : en:
00:40:30.541 : en:
00:47:03.625 : en:
00:52:58.250 : en:
01:00:46.083 : en:
01:06:32.083 : en:
01:11:53.500 : en:
01:16:29.750 : en:
01:22:58.375 : en:
01:28:18.416 : en:
01:34:24.125 : en:
01:38:28.708 : en:

Скриншоты


[fromtorrents.site].t66046.torrent 
Torrent: Registered [ 2019-08-13 18:20 ] · EA7183D2996C3B39615A801E0DADB6E934BEF1EC

Download .torrent

21 KB

Status: checked
Completed: 0 times
Size: 7.95 GB
Rate: 
(Vote: 0)
Have thanked: 0  Thanks

Скачать через торрент Легионер / Legionnaire (1998) BDRip 1080p | P2, A в хорошем качестве бесплатно


terms.php
Display posts:    

Current time is: 12-Dec 00:18

All times are UTC + 4



You cannot post new topics in this forum
You cannot reply to topics in this forum
You cannot edit your posts in this forum
You cannot delete your posts in this forum
You cannot vote in polls in this forum
You cannot attach files in this forum
You can download files in this forum

Скачать через торрент фильмы 4K Ultra HD 2160p бесплатно, на первом свободном torrent трекере без надоедливой рекламы. Качаем без ограничений, рейтингов и прочих трудностей. Ищите любимый сериал, у нас вы найдёте множество сериалов, фильмов, игр, музыки. Скачать торрентом не составит труда даже не опытному пользователю. Все торрент файлы доступны к скачиванию любому пользователю бесплатно. Переходи на freetorrent и качай по полной без регистрации и ограничений. И не забудьте поделиться ссылкой на наш сайт - мы будем очень благодарны. Это даёт нам сил и заряда для жизни проекта.

Ежедневно в мир выходит столько новых картин, что уследить за всеми просто не представляется возможным. На нашем крупнейшем русскоязычном торрент трекере вы сможете без труда скачать фильмы 4к через торрент бесплатно новинки фильмов, не проходя утомительную регистрацию с подтверждением в смс, без назойливой рекламы и перехода по подозрительным ссылкам, все желаемые файлы находятся в открытом доступе и доступны к загрузке без начисления рейтинга. Скачать новинки выгодно не только в финансовом плане, любую загруженную киноленту можно посмотреть в удобное время и в высоком качестве. Самая лучшая подборка кино фильмов 60 fps | UHD 2160p | 4K утолит желание каждого киномана, каталог постоянно пополняется только лучшими релизами. У нас представлена огромная коллекция как недавно вышедших новинок, так и давно полюбившихся бестселлеров. Для того, чтобы получить файл, вам стоит лишь перейти на вкладку искомого материала и скачать нужный торрент и подождать, пока программа перенесет полнометражную картину на компьютер. Главная страница послужит путеводителем и афишей, где можно за несколько минут найти необходимое. Первый русский свободный торрент сделан с максимальным комфортом для пользователя, не нужно тратить время на изучение интерфейса. Желаем вам приятного просмотра! Постоянное обновление и пополнение - новинками популярных игр, новый и безопасный софт, мультимедиа кпк Свободный торрент трекер.