Нечто / The Thing (1982) BDRip 1080p от HDReactor | P, A | Remastered скачать торрент

Вы посетили страницу нашего torrent трекера и теперь имеете возможность скачать бесплатно через торрент Нечто / The Thing (1982) BDRip 1080p от HDReactor | P, A | Remastered в хорошем качестве. Только лучшие релизы, на свободном torrent трекере.

Все раздачи мультитрекерные, даже при нуле сидов, можно качать на максимальной скорости. Скорость скачивания без ограничений !!!

DL-List and Torrent activity [Update пиров]
Size:  11.64 GB   |    Registered:  3 months 29 days   |    Completed:  3 times
Seeders:  2  [  0 KB/s  ]   Show peers in full details
 
   
 
 
 

rico ®

Gender:
Male
Longevity:
3 years 3 months
Posts:
5314

Информация о фильме
Название: Нечто (Коллекционное издание)
Оригинальное название: The Thing
Год выпуска: 1982
Жанр: Ужасы, фантастика, триллер, детектив, ремейк, экранизация
Выпущено: США, Universal Pictures, Turman-Foster Company
Режиссер: Джон Карпентер
В ролях: Курт Расселл, Кит Дэвид, Уилфорд Бримли, Т.К. Картер, Дэвид Кленнон, Ричард А. Дайсарт, Чарльз Хэллахан, Питер Мэлоуни, Ричард Мэсур, Дональд Моффет, Джоэл Полис, Томас Дж. Уэйтс, Норберт Вайссер, Ларри Дж. Франко, Нат Ирвин, Уильям Земан, Кент Хэйс, Ларри Холт, Мелвин Джонс, Денвер Маттсон, Клинт Роу, Кен Стрэйн, Рок А. Уолкер, Джерри Уиллс, Эдриенн Барбо, Джон Карпентер
О фильме: Команде ученых американской исследовательской базы в Антарктике предстоит столкнуться с необъяснимым, чудовищным кошмаром. Отрезанные от всего света полярники вступают в неравную схватку с инопланетной тварью, пробудившейся после тысячелетней спячки во льдах, беспощадным существом, которое проснулось и... проголодалось... «Нечто» считается не только лучшим фильмом известного специалиста по ужасам, режиссера Джона Карпентера, но и пожалуй одним из лучших фантастических фильмов ушедшего двадцатого века. Картина исключительно напряженная. Отличная, страшная музыка. Спецэффекты начала восьмидесятых сделаны настолько тщательно, что даже сегодня смотрятся более чем достойно... Экранизация по произведению: Джон В. Кэмпбелл мл. «Стой, кто идёт?».

Продолжительность: 01:48:34
Перевод: Профессиональный многоголосый, авторский
Субтитры: Русские, английские
Файл
Качество: BDRip (1080p)
Видео: MPEG-4 AVC, 12800 Кбит/с, 1920x816, 23.976 кадр/с
Аудио #01: AC3 5.1, 384 Kbps, 48.0 KHz - Русский (MVO, Киномания)
Аудио #02: AC3 5.1, 384 Kbps, 48.0 KHz - Русский (MVO, R5)
Аудио #03: AC3 5.1, 448 Kbps, 48.0 KHz - Русский (AVO, А. Гаврилов)
Аудио #04: AC3 5.1, 448 Kbps, 48.0 KHz - Русский (AVO, В. Горчаков)
Аудио #05: AC3 5.1, 448 Kbps, 48.0 KHz - Русский (AVO, А. Михалёв)
Аудио #06: AC3 5.1, 448 Kbps, 48.0 KHz - Английский (Оригинал)

МедиаИнфо

Формат : Matroska
Версия формата : Version 2
Размер файла : 11,6 Гбайт
Продолжительность : 1 ч. 48 м.
Общий поток : 15,4 Мбит/сек
Название фильма : ~V ad~
Дата кодирования : UTC 2016-09-24 13:29:23
Программа кодирования : mkvmerge v6.5.0 (#039;Isn#039;t she lovely#039;) built on Oct 20 2013 12:50:05
Библиотека кодирования : libebml v1.3.0 + libmatroska v1.4.1
Обложка : Yes
Attachments : cover.jpg
Видео
Идентификатор : 1
Формат : AVC
Формат/Информация : Advanced Video Codec
Профиль формата : [email protected]
Параметр CABAC формата : Да
Параметр ReFrames формата : 5 кадров
Идентификатор кодека : V_MPEG4/ISO/AVC
Продолжительность : 1 ч. 48 м.
Битрейт : 12,8 Мбит/сек
Ширина : 1920 пикселей
Высота : 816 пикселей
Соотношение сторон : 2,35:1
Режим частоты кадров : Постоянный
Частота кадров : 23,976 (24000/1001) кадра/сек
Цветовое пространство : YUV
Субдискретизация насыщенности : 4:2:0
Битовая глубина : 8 бит
Тип развёртки : Прогрессивная
Бит/(Пиксели*Кадры) : 0.341
Размер потока : 9,47 Гбайт (81%)
Заголовок : ~V~
Библиотека кодирования : x264 core 148 r2705 3f5ed56
Настройки программы : cabac=1 / ref=5 / deblock=1:-3:-3 / analyse=0x3:0x133 / me=umh / subme=11 / psy=1 / psy_rd=1.00:0.00 / mixed_ref=1 / me_range=32 / chroma_me=1 / trellis=2 / 8x8dct=1 / cqm=0 / deadzone=21,11 / fast_pskip=0 / chroma_qp_offset=-2 / threads=12 / lookahead_threads=1 / sliced_threads=0 / nr=0 / decimate=0 / interlaced=0 / bluray_compat=0 / constrained_intra=0 / bframes=12 / b_pyramid=2 / b_adapt=2 / b_bias=0 / direct=2 / weightb=1 / open_gop=0 / weightp=2 / keyint=240 / keyint_min=23 / scenecut=40 / intra_refresh=0 / rc=2pass / mbtree=0 / bitrate=12800 / ratetol=1.0 / qcomp=0.60 / qpmin=0 / qpmax=69 / qpstep=4 / cplxblur=20.0 / qblur=0.5 / ip_ratio=1.30 / pb_ratio=1.26 / aq=3:1.00
Язык : English
Default : Да
Forced : Нет
Аудио #1
Идентификатор : 2
Формат : AC-3
Формат/Информация : Audio Coding 3
Расширение режима : CM (complete main)
Параметр Endianness формата : Big
Идентификатор кодека : A_AC3
Продолжительность : 1 ч. 48 м.
Вид битрейта : Постоянный
Битрейт : 384 Кбит/сек
Каналы : 6 каналов
Расположение каналов : Front: L C R, Side: L R, LFE
Частота : 48,0 КГц
Частота кадров : 31,250 кадров/сек (1536 spf)
Метод сжатия : С потерями
Размер потока : 298 Мбайт (3%)
Заголовок : MVO[ Киномания)]
Язык : Russian
Default : Да
Forced : Нет
Аудио #2
Идентификатор : 3
Формат : AC-3
Формат/Информация : Audio Coding 3
Расширение режима : CM (complete main)
Параметр Endianness формата : Big
Идентификатор кодека : A_AC3
Продолжительность : 1 ч. 48 м.
Вид битрейта : Постоянный
Битрейт : 384 Кбит/сек
Каналы : 6 каналов
Расположение каналов : Front: L C R, Side: L R, LFE
Частота : 48,0 КГц
Частота кадров : 31,250 кадров/сек (1536 spf)
Метод сжатия : С потерями
Размер потока : 298 Мбайт (3%)
Заголовок : MVO[R5]
Язык : Russian
Default : Нет
Forced : Нет
Аудио #3
Идентификатор : 4
Формат : AC-3
Формат/Информация : Audio Coding 3
Расширение режима : CM (complete main)
Параметр Endianness формата : Big
Идентификатор кодека : A_AC3
Продолжительность : 1 ч. 48 м.
Вид битрейта : Постоянный
Битрейт : 448 Кбит/сек
Каналы : 6 каналов
Расположение каналов : Front: L C R, Side: L R, LFE
Частота : 48,0 КГц
Частота кадров : 31,250 кадров/сек (1536 spf)
Метод сжатия : С потерями
Размер потока : 348 Мбайт (3%)
Заголовок : AVO[Гаврилов]
Язык : Russian
Default : Нет
Forced : Нет
Аудио #4
Идентификатор : 5
Формат : AC-3
Формат/Информация : Audio Coding 3
Расширение режима : CM (complete main)
Параметр Endianness формата : Big
Идентификатор кодека : A_AC3
Продолжительность : 1 ч. 48 м.
Вид битрейта : Постоянный
Битрейт : 448 Кбит/сек
Каналы : 6 каналов
Расположение каналов : Front: L C R, Side: L R, LFE
Частота : 48,0 КГц
Частота кадров : 31,250 кадров/сек (1536 spf)
Метод сжатия : С потерями
Размер потока : 348 Мбайт (3%)
Заголовок : AVO[Горчаков]
Язык : Russian
Default : Нет
Forced : Нет
Аудио #5
Идентификатор : 6
Формат : AC-3
Формат/Информация : Audio Coding 3
Расширение режима : CM (complete main)
Параметр Endianness формата : Big
Идентификатор кодека : A_AC3
Продолжительность : 1 ч. 48 м.
Вид битрейта : Постоянный
Битрейт : 448 Кбит/сек
Каналы : 6 каналов
Расположение каналов : Front: L C R, Side: L R, LFE
Частота : 48,0 КГц
Частота кадров : 31,250 кадров/сек (1536 spf)
Метод сжатия : С потерями
Размер потока : 348 Мбайт (3%)
Заголовок : AVO[Михалёв]
Язык : Russian
Default : Нет
Forced : Нет
Аудио #6
Идентификатор : 7
Формат : AC-3
Формат/Информация : Audio Coding 3
Расширение режима : CM (complete main)
Параметр Endianness формата : Big
Идентификатор кодека : A_AC3
Продолжительность : 1 ч. 48 м.
Вид битрейта : Постоянный
Битрейт : 448 Кбит/сек
Каналы : 6 каналов
Расположение каналов : Front: L C R, Side: L R, LFE
Частота : 48,0 КГц
Частота кадров : 31,250 кадров/сек (1536 spf)
Метод сжатия : С потерями
Размер потока : 348 Мбайт (3%)
Default : Нет
Forced : Нет
Текст #1
Идентификатор : 8
Формат : UTF-8
Идентификатор кодека : S_TEXT/UTF8
Идентификатор кодека/Информация : UTF-8 Plain Text
Заголовок : Forc
Язык : Russian
Default : Да
Forced : Нет
Текст #2
Идентификатор : 9
Формат : UTF-8
Идентификатор кодека : S_TEXT/UTF8
Идентификатор кодека/Информация : UTF-8 Plain Text
Заголовок : Full
Язык : Russian
Default : Нет
Forced : Нет
Текст #3
Идентификатор : 10
Формат : UTF-8
Идентификатор кодека : S_TEXT/UTF8
Идентификатор кодека/Информация : UTF-8 Plain Text
Заголовок : Full[Гоблин]
Язык : Russian
Default : Нет
Forced : Нет
Текст #4
Идентификатор : 11
Формат : UTF-8
Идентификатор кодека : S_TEXT/UTF8
Идентификатор кодека/Информация : UTF-8 Plain Text
Язык : English
Default : Нет
Forced : Нет
Меню
00:00:00.000 : en:Main Titles
00:02:05.794 : en:Antarctica, Winter, 1982
00:04:32.899 : en:Station 4
00:07:00.880 : en:Death in the Snow
00:10:22.248 : en:Looking for Answers
00:14:18.987 : en:It Begins...
00:15:47.281 : en:The Norwegian Camp
00:22:12.249 : en:The Man-Thing
00:24:48.447 : en:What Appears to Be Normal
00:26:59.619 : en:The Beast Within
00:30:11.812 : en:The Thing
00:33:01.481 : en:Autopsy on an Alien
00:34:12.720 : en:The Perfect Imitation
00:36:01.411 : en:Something in the Ice
00:37:20.657 : en:The Crater
00:40:03.444 : en:It#039;s Different Than Us
00:41:42.627 : en:The Probability of Infection
00:45:30.312 : en:They#039;re Not Dead Yet
00:46:29.747 : en:The Thing That Was Bennings
00:50:16.223 : en:Blair Goes Berserk
00:54:42.197 : en:Matters of Trust
00:57:34.411 : en:Bad Blood
00:59:06.795 : en:The Man-in-Charge
01:02:45.388 : en:Waiting
01:05:26.382 : en:Where#039;s Fuchs?
01:09:49.979 : en:Macready Cuts Loose
01:14:21.667 : en:The Deadly Defibrillation
01:17:41.700 : en:A Little Test
01:18:42.803 : en:Something in the Blood
01:25:16.571 : en:Finishing the Test
01:26:39.237 : en:Blair#039;s Little Project
01:29:17.187 : en:No Way Out
01:31:12.969 : en:Warming Things Up
01:34:23.701 : en:Right Down Into the Ice
01:37:17.333 : en:The Real Thing
01:37:14.448 : en:One Last Thing
01:42:07.206 : en:End Titles

х264

x264 [info]: frame I:867 Avg QP:17.00 size:173161
x264 [info]: frame P:27079 Avg QP:19.07 size: 96647
x264 [info]: frame B:128236 Avg QP:20.92 size: 59631
x264 [info]: consecutive B-frames: 0.9% 0.6% 3.1% 5.3% 10.7% 59.4% 6.5% 2.7% 2.4% 2.9% 2.1% 2.4% 0.9%

Скриншоты


Сэмпл
:

[fromtorrents.site].t66052.torrent 
Torrent: Registered [ 2019-08-13 20:20 ] · 5DF5B9E8EB941A15764AD56686CBD3D58E6A5CE0

Download .torrent

30 KB

Status: checked
Completed: 3 times
Size: 11.64 GB
Rate: 
(Vote: 0)
Have thanked: 0  Thanks

Скачать через торрент Нечто / The Thing (1982) BDRip 1080p от HDReactor | P, A | Remastered в хорошем качестве бесплатно


terms.php
Display posts:    

Current time is: 12-Dec 01:07

All times are UTC + 4



You cannot post new topics in this forum
You cannot reply to topics in this forum
You cannot edit your posts in this forum
You cannot delete your posts in this forum
You cannot vote in polls in this forum
You cannot attach files in this forum
You can download files in this forum

Скачать через торрент фильмы 4K Ultra HD 2160p бесплатно, на первом свободном torrent трекере без надоедливой рекламы. Качаем без ограничений, рейтингов и прочих трудностей. Ищите любимый сериал, у нас вы найдёте множество сериалов, фильмов, игр, музыки. Скачать торрентом не составит труда даже не опытному пользователю. Все торрент файлы доступны к скачиванию любому пользователю бесплатно. Переходи на freetorrent и качай по полной без регистрации и ограничений. И не забудьте поделиться ссылкой на наш сайт - мы будем очень благодарны. Это даёт нам сил и заряда для жизни проекта.

Ежедневно в мир выходит столько новых картин, что уследить за всеми просто не представляется возможным. На нашем крупнейшем русскоязычном торрент трекере вы сможете без труда скачать фильмы 4к через торрент бесплатно новинки фильмов, не проходя утомительную регистрацию с подтверждением в смс, без назойливой рекламы и перехода по подозрительным ссылкам, все желаемые файлы находятся в открытом доступе и доступны к загрузке без начисления рейтинга. Скачать новинки выгодно не только в финансовом плане, любую загруженную киноленту можно посмотреть в удобное время и в высоком качестве. Самая лучшая подборка кино фильмов 60 fps | UHD 2160p | 4K утолит желание каждого киномана, каталог постоянно пополняется только лучшими релизами. У нас представлена огромная коллекция как недавно вышедших новинок, так и давно полюбившихся бестселлеров. Для того, чтобы получить файл, вам стоит лишь перейти на вкладку искомого материала и скачать нужный торрент и подождать, пока программа перенесет полнометражную картину на компьютер. Главная страница послужит путеводителем и афишей, где можно за несколько минут найти необходимое. Первый русский свободный торрент сделан с максимальным комфортом для пользователя, не нужно тратить время на изучение интерфейса. Желаем вам приятного просмотра! Постоянное обновление и пополнение - новинками популярных игр, новый и безопасный софт, мультимедиа кпк Свободный торрент трекер.