Джеймс Бонд 007: Казино Рояль / James Bond 007: Casino Royale (2006) UHD BDRemux 2160p от селезень | 4K | HDR | Лицензия скачать торрент

Вы посетили страницу нашего torrent трекера и теперь имеете возможность скачать бесплатно через торрент Джеймс Бонд 007: Казино Рояль / James Bond 007: Casino Royale (2006) UHD BDRemux 2160p от селезень | 4K | HDR | Лицензия в хорошем качестве. Только лучшие релизы, на свободном torrent трекере.

 

briqada ®

Gender:
Unknown
Longevity:
2 years 10 months
Posts:
3206

Информация о фильме
Название: Казино Рояль
Оригинальное название: Casino Royale
Год выхода: 2006
Жанр: Боевик, триллер, приключения, экранизация
Режиссер: Мартин Кэмпбелл
В ролях: Дэниэл Крэйг, Ева Грин, Мадс Миккельсен, Джуди Денч, Джеффри Райт, Джанкарло Джаннини, Катерина Мурино, Симон Абкарян, Исаак Де Банколе, Еспер Кристенсен, Ивана Миличевич, Тобайас Мензис, Клаудио Сантамария, Себастьен Фука, Малкольм Синклер, Рихард Заммель, Людгер Пистор, Джозеф Миллсон, Дауд Шах, Клеменс Шик, Эммануель Авена, Том Чэдбон, Эд, Урбано Барберини, Цай Чинь, Чарли Леви

О фильме: Фильм по роману Яна Флеминга - ”Казино ”Рояль” - своеобразное возвращение к истокам Бондианы. Он снят по первой книге Яна Флеминга - о Джеймсе Бонде, хотя сюжет и претерпел в киноварианте ряд непринципиальных изменений. Именно в этом фильме начинающий секретный агент, брутальный и серьёзный парень из британской разведки, становится непревзойдённым суперагентом 007. Именно здесь ему предстоит не только разделаться в нелёгкой борьбе, как с оружием в руках, так и за карточным столом (по долгу службы!), с подпольным банкиром Ле Шиффром, отмывающим деньги сразу нескольких могучих террористических организаций, но и запомнить раз и навсегда на будущее: если роман перерастает в истинную любовь, то боль, которую она способна причинить, тоже будет абсолютно настоящей... Дебют Дэниела Крэйга в роли агента 007, вопреки первоначальным сомнениям многих, оказавшийся вполне успешным.
Страна: Великобритания, Чехия, США, Германия, Багамы
Студия: Columbia Pictures
Продолжительность: 02:24:33
Перевод: Дублированный | Лицензия
Качество: BDRemux 2160p
Видео: 3840x2160 at 23.976 fps, MPEG-H HEVC HDR Video, 41900 kbps avg
Аудио #01: 48 kHz, DTS, 5.1, 768 Kbps | Лицензия | RUS |
Аудио #02: 48 kHz, DTS-HD MA, 5.1, 3887 Kbps | Оригинал | ENG |
Субтитры: Русские (Forced, full), английские

MI

General
Unique ID : 79287293156375794136265851998824963950 (0x3BA62D5DA13A6891EE824E96E12A1F6E)
Complete name : F:VideoCasino.Royale.2006.Lic.BDREMUX.2160p.HDR.seleZen.mkv
Format : Matroska
Format version : Version 4
File size : 47.0 GiB
Duration : 2 h 24 min
Overall bit rate mode : Variable
Overall bit rate : 46.5 Mb/s
Encoded date : UTC 2019-10-20 02:10:47
Writing application : mkvmerge v22.0.0 (#039;At The End Of The World#039;) 64-bit
Writing library : libebml v1.3.5 + libmatroska v1.4.8
Video
ID : 1
Format : HEVC
Format/Info : High Efficiency Video Coding
Format profile : Main [email protected]@High
HDR format : SMPTE ST 2086, HDR10 compatible
Codec ID : V_MPEGH/ISO/HEVC
Duration : 2 h 24 min
Bit rate : 41.9 Mb/s
Width : 3 840 pixels
Height : 2 160 pixels
Display aspect ratio : 16:9
Frame rate mode : Constant
Frame rate : 23.976 (24000/1001) FPS
Color space : YUV
Chroma subsampling : 4:2:0 (Type 2)
Bit depth : 10 bits
Bits/(Pixel*Frame) : 0.211
Stream size : 42.3 GiB (90%)
Language : English
Default : Yes
Forced : No
Color range : Limited
Color primaries : BT.2020
Transfer characteristics : PQ
Matrix coefficients : BT.2020 non-constant
Mastering display color pri : Display P3
Mastering display luminance : min: 0.0001 cd/m2, max: 1000 cd/m2
Audio #1
ID : 2
Format : DTS
Format/Info : Digital Theater Systems
Codec ID : A_DTS
Duration : 2 h 24 min
Bit rate mode : Constant
Bit rate : 768 kb/s
Channel(s) : 6 channels
Channel layout : C L R Ls Rs LFE
Sampling rate : 48.0 kHz
Frame rate : 93.750 FPS (512 SPF)
Bit depth : 24 bits
Compression mode : Lossy
Stream size : 794 MiB (2%)
Title : Dub [License]
Language : Russian
Default : Yes
Forced : Yes
Audio #2
ID : 3
Format : DTS XLL
Format/Info : Digital Theater Systems
Commercial name : DTS-HD Master Audio
Codec ID : A_DTS
Duration : 2 h 24 min
Bit rate mode : Variable
Bit rate : 3 887 kb/s
Channel(s) : 6 channels
Channel layout : C L R Ls Rs LFE
Sampling rate : 48.0 kHz
Frame rate : 93.750 FPS (512 SPF)
Bit depth : 24 bits
Compression mode : Lossless
Stream size : 3.92 GiB (8%)
Title : Original
Language : English
Default : No
Forced : No
Text #1
ID : 4
Format : UTF-8
Codec ID : S_TEXT/UTF8
Codec ID/Info : UTF-8 Plain Text
Duration : 2 h 12 min
Bit rate : 1 b/s
Count of elements : 26
Stream size : 1.22 KiB (0%)
Title : Forced
Language : Russian
Default : Yes
Forced : Yes
Text #2
ID : 5
Format : UTF-8
Codec ID : S_TEXT/UTF8
Codec ID/Info : UTF-8 Plain Text
Duration : 2 h 23 min
Bit rate : 47 b/s
Count of elements : 1070
Stream size : 50.5 KiB (0%)
Title : Full
Language : Russian
Default : No
Forced : No
Text #3
ID : 6
Format : UTF-8
Codec ID : S_TEXT/UTF8
Codec ID/Info : UTF-8 Plain Text
Duration : 2 h 19 min
Bit rate : 32 b/s
Count of elements : 1042
Stream size : 33.2 KiB (0%)
Title : Full
Language : English
Default : No
Forced : No
Menu
00:00:00.000 : en:00:00:00.000
00:09:37.952 : en:00:09:37.952
00:19:31.170 : en:00:19:31.170
00:25:35.993 : en:00:25:35.993
00:35:18.908 : en:00:35:18.908
00:39:59.522 : en:00:39:59.522
00:45:22.428 : en:00:45:22.428
00:57:51.051 : en:00:57:51.051
01:07:22.288 : en:01:07:22.288
01:17:12.044 : en:01:17:12.044
01:30:06.067 : en:01:30:06.067
01:38:41.165 : en:01:38:41.165
01:43:29.620 : en:01:43:29.620
01:54:03.045 : en:01:54:03.045
02:05:45.371 : en:02:05:45.371
02:13:19.700 : en:02:13:19.700

Download

Для того, чтобы

Джеймс Бонд 007: Казино Рояль / James Bond 007: Casino Royale (2006) UHD BDRemux 2160p от селезень | 4K | HDR | Лицензия

с нашего сайта, Вам необходимо Войти на сайт под своим логином! Если у Вас ещё нет логина, тогда Вам нужно сначала:




How to Download? · What is a torrent? · Ratings and Limitations

Display posts:    

Current time is: 15-Nov 20:33

All times are UTC + 4



You cannot post new topics in this forum
You cannot reply to topics in this forum
You cannot edit your posts in this forum
You cannot delete your posts in this forum
You cannot vote in polls in this forum
You cannot attach files in this forum
You cannot download files in this forum

Скачать через торрент фильмы 4K Ultra HD 2160p бесплатно, на первом свободном torrent трекере без надоедливой рекламы. Качаем без ограничений, рейтингов и прочих трудностей. Ищите любимый сериал, у нас вы найдёте множество сериалов, фильмов, игр, музыки. Скачать торрентом не составит труда даже не опытному пользователю. Все торрент файлы доступны к скачиванию любому пользователю бесплатно. Переходи на freetorrent и качай по полной без регистрации и ограничений. И не забудьте поделиться ссылкой на наш сайт - мы будем очень благодарны. Это даёт нам сил и заряда для жизни проекта.

Ежедневно в мир выходит столько новых картин, что уследить за всеми просто не представляется возможным. На нашем крупнейшем русскоязычном торрент трекере вы сможете без труда скачать фильмы 4к через торрент бесплатно новинки фильмов, не проходя утомительную регистрацию с подтверждением в смс, без назойливой рекламы и перехода по подозрительным ссылкам, все желаемые файлы находятся в открытом доступе и доступны к загрузке без начисления рейтинга. Скачать новинки выгодно не только в финансовом плане, любую загруженную киноленту можно посмотреть в удобное время и в высоком качестве. Самая лучшая подборка кино фильмов 60 fps | UHD 2160p | 4K утолит желание каждого киномана, каталог постоянно пополняется только лучшими релизами. У нас представлена огромная коллекция как недавно вышедших новинок, так и давно полюбившихся бестселлеров. Для того, чтобы получить файл, вам стоит лишь перейти на вкладку искомого материала и скачать нужный торрент и подождать, пока программа перенесет полнометражную картину на компьютер. Главная страница послужит путеводителем и афишей, где можно за несколько минут найти необходимое. Первый русский свободный торрент сделан с максимальным комфортом для пользователя, не нужно тратить время на изучение интерфейса. Желаем вам приятного просмотра! Постоянное обновление и пополнение - новинками популярных игр, новый и безопасный софт, мультимедиа кпк Свободный торрент трекер.