Джеймс Бонд 007: Квант милосердия / James Bond 007: Quantum of Solace (2008) UHD BDRemux 2160p от селезень | 4K | HDR | Лицензия скачать торрент

Вы посетили страницу нашего torrent трекера и теперь имеете возможность скачать бесплатно через торрент Джеймс Бонд 007: Квант милосердия / James Bond 007: Quantum of Solace (2008) UHD BDRemux 2160p от селезень | 4K | HDR | Лицензия в хорошем качестве. Только лучшие релизы, на свободном torrent трекере.

 

briqada ®

Gender:
Unknown
Longevity:
2 years 10 months
Posts:
3222

Информация о фильме
Название: Джеймс Бонд 007: Квант милосердия
Оригинальное название: James Bond 007: Quantum of Solace
Год выхода: 2008
Жанр: Боевик, триллер, приключения
Режиссер: Марк Форстер
В ролях: Дэниэл Крэйг, Ольга Куриленко, Матьё Амальрик, Джуди Денч, Джанкарло Джаннини, Джемма Артертон, Джеффри Райт, Дэвид Харбор, Еспер Кристенсен, Анатоль Таубман, Рори Киннер, Тим Пиготт-Смит, Хоакин Косио, Фернандо Гильен Куэрво, Хесус Очоа, Лукреция Ланте Делла Ровере, Гленн Фостер, Пол Риттер, Саймон Кассианидес, Стана Катич, Нил Джексон, Уна Чаплин, Брендан О#039;Хиа, Кэри Патрис Коли, Сара Хэдлэнд, Марк Вейкинг, Карин Ланц, Кристиан Хеллер, Рэйчел МакДауэлл, Раффаэлло Дегруттола

О фильме: Действие фильма quot;Квант милосердияquot; начинается буквально через час после финальных событий предыдущего, quot;Казино Рояльquot;. Бонд вне себя от ярости, вызванной предательством любимой женщины. Тем более, что она была ещё и его коллегой по Секретной Службе. Однако агент 007 в нём всё же берёт верх над оскорблёнными гордостью и доверием. Тем более, что предательство закралось гораздо глубже, чем кажется на первый взгляд - двойным агентом оказывается даже личный телохранитель самого шефа Службы, а преступная организация, шантажировавшая Веспер, подругу Бонда - сильна и организована настолько, что способна сломить и подчинить едва ли не кого угодно. Но если она при этом перешла дорогу лично Джеймсу Бонду - то тем хуже для неё... Он сумеет и узнать, что за чередою всех прежних предательств и новых преступлений стоит амбициозный бизнесмен Доминик Грин, и найти себе сильного помошника, несмотря на то, что это представительница слабого пола, ищущая совсем другого человека, и всё время опережать на шаг в этой опасной охоте всех без исключения - от собственного начальства до могущественного ЦРУ. Пока Грин затевает с недалёким и беспринципным генералом Медрано государственный переворот в Боливии, а сам генерал даже не догадывается, какими выгодами это обернётся для самого Грина - Бонд и его боевая подруга Камилла неуклонно приближаются к цели, которая у них обоих, по большому счёту, одна на двоих - возмездие.
Страна: США, Великобритания
Студия: Columbia Pictures, Danjaq Productions, Eon Productions Ltd., Metro-Goldwyn-Mayer (MGM)
Продолжительность: 01:46:14
Перевод: Дублированный | Лицензия
Качество: BDRemux 2160p
Видео: 3840x2160 at 23.976 fps, MPEG-H HEVC HDR Video, 62600 kbps avg
Аудио #01: 48 kHz, DTS, 5.1, 768 Kbps | Лицензия | RUS |
Аудио #02: 48 kHz, DTS-HD MA, 5.1, 4094 Kbps | Оригинал | ENG |
Субтитры: Русские (Forced, full), английские

MI

General
Unique ID : 276130921361085184376490778140038435720 (0xCFBCE18959C65B7144E35F11F7649388)
Complete name : D:Video111Quantum.of.Solace.2008.Lic.BDREMUX.2160p.HDR.seleZen.mkv
Format : Matroska
Format version : Version 4
File size : 50.0 GiB
Duration : 1 h 46 min
Overall bit rate mode : Variable
Overall bit rate : 67.4 Mb/s
Movie name : Quantum of Solace 2008 4K from селезень
Encoded date : UTC 2019-10-20 04:07:16
Writing application : mkvmerge v22.0.0 (#039;At The End Of The World#039;) 64-bit
Writing library : libebml v1.3.5 + libmatroska v1.4.8
Video
ID : 1
Format : HEVC
Format/Info : High Efficiency Video Coding
Format profile : Main [email protected]@High
HDR format : SMPTE ST 2086, HDR10 compatible
Codec ID : V_MPEGH/ISO/HEVC
Duration : 1 h 46 min
Bit rate : 62.6 Mb/s
Width : 3 840 pixels
Height : 2 160 pixels
Display aspect ratio : 16:9
Frame rate mode : Constant
Frame rate : 23.976 (24000/1001) FPS
Color space : YUV
Chroma subsampling : 4:2:0 (Type 2)
Bit depth : 10 bits
Bits/(Pixel*Frame) : 0.315
Stream size : 46.4 GiB (93%)
Language : English
Default : Yes
Forced : No
Color range : Limited
Color primaries : BT.2020
Transfer characteristics : PQ
Matrix coefficients : BT.2020 non-constant
Mastering display color pri : Display P3
Mastering display luminance : min: 0.0001 cd/m2, max: 1000 cd/m2
Audio #1
ID : 2
Format : DTS
Format/Info : Digital Theater Systems
Codec ID : A_DTS
Duration : 1 h 46 min
Bit rate mode : Constant
Bit rate : 768 kb/s
Channel(s) : 6 channels
Channel layout : C L R Ls Rs LFE
Sampling rate : 48.0 kHz
Frame rate : 93.750 FPS (512 SPF)
Bit depth : 24 bits
Compression mode : Lossy
Stream size : 584 MiB (1%)
Title : Dub [License]
Language : Russian
Default : Yes
Forced : Yes
Audio #2
ID : 3
Format : DTS XLL
Format/Info : Digital Theater Systems
Commercial name : DTS-HD Master Audio
Codec ID : A_DTS
Duration : 1 h 46 min
Bit rate mode : Variable
Bit rate : 4 094 kb/s
Channel(s) : 6 channels
Channel layout : C L R Ls Rs LFE
Sampling rate : 48.0 kHz
Frame rate : 93.750 FPS (512 SPF)
Bit depth : 24 bits
Compression mode : Lossless
Stream size : 3.04 GiB (6%)
Title : Original
Language : English
Default : No
Forced : No
Text #1
ID : 4
Format : UTF-8
Codec ID : S_TEXT/UTF8
Codec ID/Info : UTF-8 Plain Text
Duration : 1 h 43 min
Bit rate : 4 b/s
Count of elements : 75
Stream size : 3.53 KiB (0%)
Title : Forced
Language : Russian
Default : Yes
Forced : Yes
Text #2
ID : 5
Format : UTF-8
Codec ID : S_TEXT/UTF8
Codec ID/Info : UTF-8 Plain Text
Duration : 1 h 43 min
Bit rate : 60 b/s
Count of elements : 1009
Stream size : 45.8 KiB (0%)
Title : Full
Language : Russian
Default : No
Forced : No
Text #3
ID : 6
Format : UTF-8
Codec ID : S_TEXT/UTF8
Codec ID/Info : UTF-8 Plain Text
Duration : 1 h 37 min
Bit rate : 43 b/s
Count of elements : 980
Stream size : 30.8 KiB (0%)
Title : Full
Language : English
Default : No
Forced : No
Menu
00:00:00.000 : en:00:00:00.000
00:04:09.791 : en:00:04:09.791
00:07:27.197 : en:00:07:27.197
00:10:20.203 : en:00:10:20.203
00:15:16.499 : en:00:15:16.499
00:17:47.316 : en:00:17:47.316
00:20:23.973 : en:00:20:23.973
00:22:51.036 : en:00:22:51.036
00:26:28.086 : en:00:26:28.086
00:29:06.036 : en:00:29:06.036
00:33:16.578 : en:00:33:16.578
00:35:47.771 : en:00:35:47.771
00:39:01.798 : en:00:39:01.798
00:44:18.823 : en:00:44:18.823
00:47:21.464 : en:00:47:21.464
00:52:30.564 : en:00:52:30.564
00:56:28.677 : en:00:56:28.677
01:01:16.840 : en:01:01:16.840
01:04:50.678 : en:01:04:50.678
01:11:04.469 : en:01:11:04.469
01:12:34.100 : en:01:12:34.100
01:17:16.090 : en:01:17:16.090
01:21:05.360 : en:01:21:05.360
01:24:17.386 : en:01:24:17.386
01:29:19.604 : en:01:29:19.604
01:36:15.186 : en:01:36:15.186
01:37:58.915 : en:01:37:58.915
01:41:38.801 : en:01:41:38.801

Download

Для того, чтобы

Джеймс Бонд 007: Квант милосердия / James Bond 007: Quantum of Solace (2008) UHD BDRemux 2160p от селезень | 4K | HDR | Лицензия

с нашего сайта, Вам необходимо Войти на сайт под своим логином! Если у Вас ещё нет логина, тогда Вам нужно сначала:




How to Download? · What is a torrent? · Ratings and Limitations

Display posts:    

Current time is: 18-Nov 18:52

All times are UTC + 4



You cannot post new topics in this forum
You cannot reply to topics in this forum
You cannot edit your posts in this forum
You cannot delete your posts in this forum
You cannot vote in polls in this forum
You cannot attach files in this forum
You cannot download files in this forum

Скачать через торрент фильмы 4K Ultra HD 2160p бесплатно, на первом свободном torrent трекере без надоедливой рекламы. Качаем без ограничений, рейтингов и прочих трудностей. Ищите любимый сериал, у нас вы найдёте множество сериалов, фильмов, игр, музыки. Скачать торрентом не составит труда даже не опытному пользователю. Все торрент файлы доступны к скачиванию любому пользователю бесплатно. Переходи на freetorrent и качай по полной без регистрации и ограничений. И не забудьте поделиться ссылкой на наш сайт - мы будем очень благодарны. Это даёт нам сил и заряда для жизни проекта.

Ежедневно в мир выходит столько новых картин, что уследить за всеми просто не представляется возможным. На нашем крупнейшем русскоязычном торрент трекере вы сможете без труда скачать фильмы 4к через торрент бесплатно новинки фильмов, не проходя утомительную регистрацию с подтверждением в смс, без назойливой рекламы и перехода по подозрительным ссылкам, все желаемые файлы находятся в открытом доступе и доступны к загрузке без начисления рейтинга. Скачать новинки выгодно не только в финансовом плане, любую загруженную киноленту можно посмотреть в удобное время и в высоком качестве. Самая лучшая подборка кино фильмов 60 fps | UHD 2160p | 4K утолит желание каждого киномана, каталог постоянно пополняется только лучшими релизами. У нас представлена огромная коллекция как недавно вышедших новинок, так и давно полюбившихся бестселлеров. Для того, чтобы получить файл, вам стоит лишь перейти на вкладку искомого материала и скачать нужный торрент и подождать, пока программа перенесет полнометражную картину на компьютер. Главная страница послужит путеводителем и афишей, где можно за несколько минут найти необходимое. Первый русский свободный торрент сделан с максимальным комфортом для пользователя, не нужно тратить время на изучение интерфейса. Желаем вам приятного просмотра! Постоянное обновление и пополнение - новинками популярных игр, новый и безопасный софт, мультимедиа кпк Свободный торрент трекер.