Трое из ада / 3 from Hell / Three from Hell (2019) BDRemux 1080p | Unrated | A, L2 скачать торрент

Вы посетили страницу нашего torrent трекера и теперь имеете возможность скачать бесплатно через торрент Трое из ада / 3 from Hell / Three from Hell (2019) BDRemux 1080p | Unrated | A, L2 в хорошем качестве. Только лучшие релизы, на свободном torrent трекере.

Все раздачи мультитрекерные, даже при нуле сидов, можно качать на максимальной скорости. Скорость скачивания без ограничений !!!

DL-List and Torrent activity [Update пиров]
Size:  34.42 GB   |    Registered:  1 month 3 days   |    Completed:  0 times
Seeders:  1  [  0 KB/s  ]   Leechers:  1  [  0 KB/s  ]   Show peers in full details
 
   
 
 
 

briqada ®

Gender:
Unknown
Longevity:
2 years 11 months
Posts:
3288

Информация о фильме
Название: Трое из ада
Оригинальное название: 3 from Hell / Three from Hell
Год выхода: 2019
Жанр: ужасы, триллер
Режиссер: Роб Зомби
Сценарий: Роб Зомби
В ролях: Шери Мун Зомби, Билл Моусли, Сид Хэйг, Ричард Брэйк, Эмилио Ривера, Дэнни Трехо, Сильвия Джеффрис, Ричард Рили, Алекс Элла, Ди Уоллес-Стоун, Джеффри Дэниэл Филлипс и др.
О фильме:
После того, как едва пережив яростную перестрелку с полицией, «Бэйби», Отис и «Капитан Сполдинг» оказываются за решеткой. Но чистое зло не может быть сдержано. Объединившись со сводным братом Отиса «Фокси», сумасшедший клан Файрфлай вернулся, чтобы развязать новую волну смерти и разврата. Огненный шторм убийства, безумия и хаоса будет развязан в этой ужасной поездке в ад и обратно.

Возраст: 18+ (зрителям, достигшим 18 лет. запрещено для детей)
Рейтинг MPAA: R (лицам до 17 лет обязательно присутствие взрослого)
Страна: США
Продолжительность: 01:55:47
Перевод 1: Авторский (одноголосый, закадровый) М.Яроцкий (ненормативная лексика)
Перевод 2: Любительский (двухголосый, закадровый) LakeFilms
Субтитры: Английские, испанские
Файл
Тип релиза: BDRemux 1080p
Контейнер: MKV
Видео: MPEG-4 AVC, 1080p, 1920:1080, 33045 kbps, 23.976 fps
Аудио 1: DTS-HD MA, 8 ch, 48 kHz, 4844 kbps, 24-bit (DTS Core 6 ch, 48 kHz, 1509 kbps) Русский AVO М.Яроцкий
Аудио 2: АС3, 2 ch, 48 kHz, 384 kbps Русский DVO LakeFilms
Аудио 3: DTS-HD MA, 8 ch, 48 kHz, 4258 kbps, 24-bit (DTS Core 6 ch, 48 kHz, 1509 kbps) Английский
Формат субтитров: SRT, PGS

M/I

General
Unique ID : 328300382368184360400033681210935595276 (0xF6FC5A8D1C23F2186982A1F55AABD10C)
Complete name : G:Three.from.Hell.2019.UNRATED.REMUX.mkv
Format : Matroska
Format version : Version 4 / Version 2
File size : 34.4 GiB
Duration : 1 h 55 min
Overall bit rate mode : Variable
Overall bit rate : 42.6 Mb/s
Encoded date : UTC 2019-11-01 04:00:28
Writing application : mkvmerge v20.0.0 (#039;I Am The Sun#039;) 64-bit
Writing library : libebml v1.3.5 + libmatroska v1.4.8
Video
ID : 1
Format : AVC
Format/Info : Advanced Video Codec
Format profile : [email protected]
Format settings : CABAC / 4 Ref Frames
Format settings, CABAC : Yes
Format settings, RefFrames : 4 frames
Codec ID : V_MPEG4/ISO/AVC
Duration : 1 h 55 min
Bit rate mode : Variable
Bit rate : 33.0 Mb/s
Maximum bit rate : 37.0 Mb/s
Width : 1 920 pixels
Height : 1 080 pixels
Display aspect ratio : 16:9
Frame rate mode : Constant
Frame rate : 23.976 (24000/1001) FPS
Color space : YUV
Chroma subsampling : 4:2:0
Bit depth : 8 bits
Scan type : Progressive
Bits/(Pixel*Frame) : 0.665
Stream size : 26.7 GiB (78%)
Language : English
Default : Yes
Forced : No
Audio #1
ID : 2
Format : DTS
Format/Info : Digital Theater Systems
Format profile : MA / Core
Codec ID : A_DTS
Duration : 1 h 55 min
Bit rate mode : Variable / Constant
Bit rate : 4 844 kb/s / 1 509 kb/s
Channel(s) : 8 channels / 6 channels
Channel positions : Front: L C R, Side: L R, Back: L R, LFE / Front: L C R, Side: L R, LFE
Sampling rate : 48.0 kHz
Frame rate : 93.750 FPS (512 SPF)
Bit depth : 24 bits
Compression mode : Lossless / Lossy
Stream size : 3.92 GiB (11%)
Title : VO Jarotskiy
Language : Russian
Default : Yes
Forced : No
Audio #2
ID : 3
Format : AC-3
Format/Info : Audio Coding 3
Codec ID : A_AC3
Duration : 1 h 55 min
Bit rate mode : Constant
Bit rate : 384 kb/s
Channel(s) : 2 channels
Channel positions : Front: L R
Sampling rate : 48.0 kHz
Frame rate : 31.250 FPS (1536 SPF)
Bit depth : 16 bits
Compression mode : Lossy
Stream size : 318 MiB (1%)
Title : DVO LakeFilms
Language : Russian
Service kind : Complete Main
Default : No
Forced : No
Audio #3
ID : 4
Format : DTS
Format/Info : Digital Theater Systems
Format profile : MA / Core
Codec ID : A_DTS
Duration : 1 h 55 min
Bit rate mode : Variable / Constant
Bit rate : 4 258 kb/s / 1 509 kb/s
Channel(s) : 8 channels / 6 channels
Channel positions : Front: L C R, Side: L R, Back: L R, LFE / Front: L C R, Side: L R, LFE
Sampling rate : 48.0 kHz
Frame rate : 93.750 FPS (512 SPF)
Bit depth : 24 bits
Compression mode : Lossless / Lossy
Stream size : 3.44 GiB (10%)
Language : English
Default : No
Forced : No
Text #1
ID : 5
Format : UTF-8
Codec ID : S_TEXT/UTF8
Codec ID/Info : UTF-8 Plain Text
Duration : 1 h 46 min
Bit rate : 53 b/s
Count of elements : 1369
Stream size : 41.7 KiB (0%)
Language : English
Default : No
Forced : No
Text #2
ID : 6
Format : PGS
Muxing mode : zlib
Codec ID : S_HDMV/PGS
Codec ID/Info : Picture based subtitle format used on BDs/HD-DVDs
Duration : 1 h 46 min
Bit rate : 35.4 kb/s
Count of elements : 2789
Stream size : 27.0 MiB (0%)
Language : Spanish
Default : No
Forced : No
Menu
00:00:00.000 : en:Chapter 01
00:06:18.920 : en:Chapter 02
00:13:16.837 : en:Chapter 03
00:21:29.538 : en:Chapter 04
00:28:25.286 : en:Chapter 05
00:33:30.049 : en:Chapter 06
00:42:12.738 : en:Chapter 07
00:48:23.150 : en:Chapter 08
00:55:15.937 : en:Chapter 09
01:05:21.167 : en:Chapter 10
01:10:13.834 : en:Chapter 11
01:21:01.231 : en:Chapter 12
01:25:16.069 : en:Chapter 13
01:31:16.262 : en:Chapter 14
01:39:35.260 : en:Chapter 15
01:46:39.434 : en:Chapter 16

Скриншоты


[fromtorrents.site].t69490.torrent 
Torrent: Registered [ 2019-11-06 16:20 ] · 45926A3F238101E1493C9A715782369A5F2F6D18

Download .torrent

173 KB

Status: checked
Completed: 0 times
Size: 34.42 GB
Rate: 
(Vote: 0)
Have thanked: 0  Thanks

Скачать через торрент Трое из ада / 3 from Hell / Three from Hell (2019) BDRemux 1080p | Unrated | A, L2 в хорошем качестве бесплатно


terms.php
Display posts:    

Current time is: 09-Dec 21:46

All times are UTC + 4



You cannot post new topics in this forum
You cannot reply to topics in this forum
You cannot edit your posts in this forum
You cannot delete your posts in this forum
You cannot vote in polls in this forum
You cannot attach files in this forum
You can download files in this forum

Скачать через торрент фильмы 4K Ultra HD 2160p бесплатно, на первом свободном torrent трекере без надоедливой рекламы. Качаем без ограничений, рейтингов и прочих трудностей. Ищите любимый сериал, у нас вы найдёте множество сериалов, фильмов, игр, музыки. Скачать торрентом не составит труда даже не опытному пользователю. Все торрент файлы доступны к скачиванию любому пользователю бесплатно. Переходи на freetorrent и качай по полной без регистрации и ограничений. И не забудьте поделиться ссылкой на наш сайт - мы будем очень благодарны. Это даёт нам сил и заряда для жизни проекта.

Ежедневно в мир выходит столько новых картин, что уследить за всеми просто не представляется возможным. На нашем крупнейшем русскоязычном торрент трекере вы сможете без труда скачать фильмы 4к через торрент бесплатно новинки фильмов, не проходя утомительную регистрацию с подтверждением в смс, без назойливой рекламы и перехода по подозрительным ссылкам, все желаемые файлы находятся в открытом доступе и доступны к загрузке без начисления рейтинга. Скачать новинки выгодно не только в финансовом плане, любую загруженную киноленту можно посмотреть в удобное время и в высоком качестве. Самая лучшая подборка кино фильмов 60 fps | UHD 2160p | 4K утолит желание каждого киномана, каталог постоянно пополняется только лучшими релизами. У нас представлена огромная коллекция как недавно вышедших новинок, так и давно полюбившихся бестселлеров. Для того, чтобы получить файл, вам стоит лишь перейти на вкладку искомого материала и скачать нужный торрент и подождать, пока программа перенесет полнометражную картину на компьютер. Главная страница послужит путеводителем и афишей, где можно за несколько минут найти необходимое. Первый русский свободный торрент сделан с максимальным комфортом для пользователя, не нужно тратить время на изучение интерфейса. Желаем вам приятного просмотра! Постоянное обновление и пополнение - новинками популярных игр, новый и безопасный софт, мультимедиа кпк Свободный торрент трекер.