Закат американской империи / Le déclin de l'empire américain (1986) BDRemux 1080p | P, P2, A скачать торрент

Вы посетили страницу нашего torrent трекера и теперь имеете возможность скачать бесплатно через торрент Закат американской империи / Le déclin de l'empire américain (1986) BDRemux 1080p | P, P2, A в хорошем качестве. Только лучшие релизы, на свободном torrent трекере.

Все раздачи мультитрекерные, даже при нуле сидов, можно качать на максимальной скорости. Скорость скачивания без ограничений !!!

DL-List and Torrent activity [Update пиров]
Size:  21.35 GB   |    Registered:  1 month 2 days   |    Completed:  0 times

Seeder not seen: Never

 
   
 
 
 

briqada ®

Gender:
Unknown
Longevity:
2 years 11 months
Posts:
3288


Информация о фильме
Название: Закат американской империи
Оригинальное название: Le déclin de l#039;empire américain
Год выхода: 1986
Жанр: Драма, комедия
Режиссер: Дени Аркан
В ролях: Доминик Мишель, Доротея Берриман, Луиза Порталь, Пьер Курци, Реми Жирар, Ив Жак, Женевьева Риу, Даниэль Бриер, Габриэль Аркан, Эвелин Рекимбальд
О фильме:
Канадские интеллектуалы средних лет, университетские профессора, готовятся к вечеринке и — разговаривают. Мужчины — до поры — отдельно, женщины отдельно. Потом, объединившись за столом, они продолжают дискуссии — все о том же, о сексе.

Страна: Канада
Студия: Cineplex-Odeon Films, Corporation Image M M, L#039;Office National du Film du Canada
Продолжительность: 01:41:34
Перевод: Многоголосый закадровый, Двухголосый закадровый, Авторский (одноголосый)
Субтитры: Русские, английские
: NNMClub
Качество: BDRemux 1080p
Видео: AVC/H.264, 1920x1080, (16:9), ~25.6 Mbps, 23.976 fps
Аудио 1: DTS-HD MA, 6 ch, 1979 Kbps - Русский (MVO - Cinema Prestige)
Аудио 2: AC3, 2 ch, 192 Kbps - Русский (DVO - НТВ)
Аудио 3: AC3, 2 ch, 192 Kbps - Русский (AVO - Р. Янкелевич)
Аудио 4: DTS-HD MA, 6 ch, 1981 Kbps - Французский (Оригинал)
Аудио 5: AC3, 2 ch, 192 Kbps - Английский (Дубляж)

MediaInfo:

General
Unique ID : 67595774661531828129700403309996938403 (0x32DA78FFD15A53152F492B705DC414A3)
Complete name : D:Le.Declin.De.l.Empire.Americain.1986.BDRemux.1080p.NNMClub.mkv
Format : Matroska
Format version : Version 4
File size : 21.4 GiB
Duration : 1 h 41 min
Overall bit rate mode : Variable
Overall bit rate : 30.1 Mb/s
Movie name : Le d#233;clin de l#039;empire am#233;ricain / The Decline of the American Empire (1986) | NNMClub
Encoded date : UTC 2019-11-06 14:05:46
Writing application : mkvmerge v39.0.0 (#039;In The Waiting Line#039;) 64-bit
Writing library : libebml v1.3.9 + libmatroska v1.5.2
Cover : Yes
Attachments : Cover.jpg
Video
ID : 1
Format : AVC
Format/Info : Advanced Video Codec
Format profile : [email protected]
Format settings : CABAC / 4 Ref Frames
Format settings, CABAC : Yes
Format settings, Reference : 4 frames
Format settings, GOP : M=3, N=24
Codec ID : V_MPEG4/ISO/AVC
Duration : 1 h 41 min
Bit rate mode : Variable
Bit rate : 25.6 Mb/s
Maximum bit rate : 35.0 Mb/s
Width : 1 920 pixels
Height : 1 080 pixels
Display aspect ratio : 16:9
Frame rate mode : Constant
Frame rate : 23.976 (24000/1001) FPS
Standard : NTSC
Color space : YUV
Chroma subsampling : 4:2:0
Bit depth : 8 bits
Scan type : Progressive
Bits/(Pixel*Frame) : 0.514
Stream size : 18.1 GiB (85%)
Title : Le d#233;clin de l#039;empire am#233;ricain / The Decline of the American Empire (1986)
Language : English
Default : Yes
Forced : No
Color range : Limited
Color primaries : BT.709
Transfer characteristics : BT.709
Matrix coefficients : BT.709
Audio #1
ID : 2
Format : DTS XLL
Format/Info : Digital Theater Systems
Commercial name : DTS-HD Master Audio
Codec ID : A_DTS
Duration : 1 h 41 min
Bit rate mode : Variable
Bit rate : 1 979 kb/s
Channel(s) : 6 channels
Channel layout : C L R Ls Rs LFE
Sampling rate : 48.0 kHz
Frame rate : 93.750 FPS (512 SPF)
Bit depth : 16 bits
Compression mode : Lossless
Stream size : 1.40 GiB (7%)
Title : MVO | Cinema Prestige
Language : Russian
Default : Yes
Forced : No
Audio #2
ID : 3
Format : AC-3
Format/Info : Audio Coding 3
Commercial name : Dolby Digital
Codec ID : A_AC3
Duration : 1 h 41 min
Bit rate mode : Constant
Bit rate : 192 kb/s
Channel(s) : 2 channels
Channel layout : L R
Sampling rate : 48.0 kHz
Frame rate : 31.250 FPS (1536 SPF)
Compression mode : Lossy
Stream size : 139 MiB (1%)
Title : DVO | НТВ
Language : Russian
Service kind : Complete Main
Default : No
Forced : No
Audio #3
ID : 4
Format : AC-3
Format/Info : Audio Coding 3
Commercial name : Dolby Digital
Codec ID : A_AC3
Duration : 1 h 41 min
Bit rate mode : Constant
Bit rate : 192 kb/s
Channel(s) : 2 channels
Channel layout : L R
Sampling rate : 48.0 kHz
Frame rate : 31.250 FPS (1536 SPF)
Compression mode : Lossy
Stream size : 139 MiB (1%)
Title : AVO | Р. Янкелевич
Language : Russian
Service kind : Complete Main
Default : No
Forced : No
Audio #4
ID : 5
Format : DTS XLL
Format/Info : Digital Theater Systems
Commercial name : DTS-HD Master Audio
Codec ID : A_DTS
Duration : 1 h 41 min
Bit rate mode : Variable
Bit rate : 1 981 kb/s
Channel(s) : 6 channels
Channel layout : C L R Ls Rs LFE
Sampling rate : 48.0 kHz
Frame rate : 93.750 FPS (512 SPF)
Bit depth : 16 bits
Compression mode : Lossless
Stream size : 1.40 GiB (7%)
Title : Original
Language : French
Default : No
Forced : No
Audio #5
ID : 6
Format : AC-3
Format/Info : Audio Coding 3
Commercial name : Dolby Digital
Codec ID : A_AC3
Duration : 1 h 41 min
Bit rate mode : Constant
Bit rate : 192 kb/s
Channel(s) : 2 channels
Channel layout : L R
Sampling rate : 48.0 kHz
Frame rate : 31.250 FPS (1536 SPF)
Compression mode : Lossy
Stream size : 139 MiB (1%)
Title : DUB
Language : English
Service kind : Complete Main
Default : No
Forced : No
Text #1
ID : 7
Format : UTF-8
Codec ID : S_TEXT/UTF8
Codec ID/Info : UTF-8 Plain Text
Duration : 1 h 38 min
Bit rate : 105 b/s
Count of elements : 1532
Stream size : 76.3 KiB (0%)
Title : Full
Language : Russian
Default : No
Forced : No
Text #2
ID : 8
Format : UTF-8
Codec ID : S_TEXT/UTF8
Codec ID/Info : UTF-8 Plain Text
Duration : 1 h 38 min
Bit rate : 56 b/s
Count of elements : 1516
Stream size : 41.1 KiB (0%)
Title : Full
Language : English
Default : No
Forced : No
Menu
00:00:00.000 : 00:00:00.000
00:06:33.852 : 00:06:33.852
00:12:49.769 : 00:12:49.769
00:18:59.763 : 00:18:59.763
00:26:19.578 : 00:26:19.578
00:32:00.585 : 00:32:00.585
00:37:06.306 : 00:37:06.306
00:45:01.364 : 00:45:01.364
00:54:02.239 : 00:54:02.239
00:59:26.396 : 00:59:26.396
01:04:08.428 : 01:04:08.428
01:11:44.675 : 01:11:44.675
01:16:56.737 : 01:16:56.737
01:25:02.055 : 01:25:02.055
01:31:53.550 : 01:31:53.550
01:39:01.561 : 01:39:01.561

Скриншоты


[fromtorrents.site].t69534.torrent 
Torrent: Registered [ 2019-11-07 16:30 ] · 2277E313587E2C234455A7413C8E590E9F2843F9

Download .torrent

108 KB

Status: checked
Completed: 0 times
Size: 21.35 GB
Rate: 
(Vote: 0)
Have thanked: 0  Thanks

Скачать через торрент Закат американской империи / Le déclin de l'empire américain (1986) BDRemux 1080p | P, P2, A в хорошем качестве бесплатно


terms.php
Display posts:    

Current time is: 09-Dec 21:46

All times are UTC + 4



You cannot post new topics in this forum
You cannot reply to topics in this forum
You cannot edit your posts in this forum
You cannot delete your posts in this forum
You cannot vote in polls in this forum
You cannot attach files in this forum
You can download files in this forum

Скачать через торрент фильмы 4K Ultra HD 2160p бесплатно, на первом свободном torrent трекере без надоедливой рекламы. Качаем без ограничений, рейтингов и прочих трудностей. Ищите любимый сериал, у нас вы найдёте множество сериалов, фильмов, игр, музыки. Скачать торрентом не составит труда даже не опытному пользователю. Все торрент файлы доступны к скачиванию любому пользователю бесплатно. Переходи на freetorrent и качай по полной без регистрации и ограничений. И не забудьте поделиться ссылкой на наш сайт - мы будем очень благодарны. Это даёт нам сил и заряда для жизни проекта.

Ежедневно в мир выходит столько новых картин, что уследить за всеми просто не представляется возможным. На нашем крупнейшем русскоязычном торрент трекере вы сможете без труда скачать фильмы 4к через торрент бесплатно новинки фильмов, не проходя утомительную регистрацию с подтверждением в смс, без назойливой рекламы и перехода по подозрительным ссылкам, все желаемые файлы находятся в открытом доступе и доступны к загрузке без начисления рейтинга. Скачать новинки выгодно не только в финансовом плане, любую загруженную киноленту можно посмотреть в удобное время и в высоком качестве. Самая лучшая подборка кино фильмов 60 fps | UHD 2160p | 4K утолит желание каждого киномана, каталог постоянно пополняется только лучшими релизами. У нас представлена огромная коллекция как недавно вышедших новинок, так и давно полюбившихся бестселлеров. Для того, чтобы получить файл, вам стоит лишь перейти на вкладку искомого материала и скачать нужный торрент и подождать, пока программа перенесет полнометражную картину на компьютер. Главная страница послужит путеводителем и афишей, где можно за несколько минут найти необходимое. Первый русский свободный торрент сделан с максимальным комфортом для пользователя, не нужно тратить время на изучение интерфейса. Желаем вам приятного просмотра! Постоянное обновление и пополнение - новинками популярных игр, новый и безопасный софт, мультимедиа кпк Свободный торрент трекер.