John Fogerty - 50 Year Trip: Live at Red Rocks [24bit Hi-Res] (2019) FLAC скачать торрент

Вы посетили страницу нашего torrent трекера и теперь имеете возможность скачать бесплатно через торрент John Fogerty - 50 Year Trip: Live at Red Rocks [24bit Hi-Res] (2019) FLAC в хорошем качестве. Только лучшие релизы, на свободном torrent трекере.

Все раздачи мультитрекерные, даже при нуле сидов, можно качать на максимальной скорости. Скорость скачивания без ограничений !!!

DL-List and Torrent activity [Update пиров]
Size:  814 MB   |    Registered:  9 days   |    Completed:  0 times
Seeders:  2  [  0 KB/s  ]   Leechers:  1  [  0 KB/s  ]   Show peers in full details
 
   
 
 
 

leerik ®

Gender:
Unknown
Longevity:
3 years 1 month
Posts:
10247


Исполнитель: John Fogerty
Название: 50 Year Trip: Live at Red Rocks
Страна: USA
Жанр: Classic-Rock, Roots-Rock, Country-Rock
Год: 2019
Продолжительность: 01:08:52
Битрейт аудио: Lossless
Формат/Кодек: FLAC
Тип рипа: tracks
Разрядность: 24/44.1
Количество каналов: 2.0



1. Born On The Bayou (Live at Red Rocks) (3:31)
2. Green River (Live At Red Rocks) (3:26)
3. Lookin#039; Out My Back Door (Live At Red Rocks) (2:45)
4. Susie Q (Live at Red Rocks) (3:44)
5. Who#039;ll Stop the Rain (Live at Red Rocks) (2:30)
6. Hey Tonight (Live at Red Rocks) (2:12)
7. Up Around the Bend (Live at Red Rocks) (2:25)
8. Rock and Roll Girls (Live at Red Rocks) (3:09)
9. I Heard It Through The Grapevine (Live at Red Rocks) (8:17)
10. Long As I Can See The Light (Live at Red Rocks) (3:44)
11. Run Through The Jungle (Live at Red Rocks) (3:22)
12. Keep On Chooglin#039; (Live at Red Rocks) (6:39)
13. Have You Ever Seen The Rain? (Live at Red Rocks) (2:31)
14. Down On The Corner (Live at Red Rocks) (2:42)
15. Centerfield (Live at Red Rocks) (3:55)
16. The Old Man Down The Road (Live at Red Rocks) (5:34)
17. Fortunate Son (Live at Red Rocks) (2:49)
18. Bad Moon Rising (Live at Red Rocks) (2:10)
19. Proud Mary (Live at Red Rocks) (3:38)

DR

foobar2000 1.4.8 / Dynamic Range Meter 1.1.1
log date: 2019-11-08 14:01:28
--------------------------------------------------------------------------------
Analyzed: John Fogerty / 50 Year Trip: Live at Red Rocks
--------------------------------------------------------------------------------
DR Peak RMS Duration Track
--------------------------------------------------------------------------------
DR9 -1.00 dB -10.64 dB 3:31 01-Born On The Bayou (Live at Red Rocks)
DR9 -1.00 dB -10.46 dB 3:26 02-Green River (Live At Red Rocks)
DR9 -1.02 dB -10.77 dB 2:45 03-Lookin#039; Out My Back Door (Live At Red Rocks)
DR9 -1.05 dB -10.78 dB 3:44 04-Susie Q (Live at Red Rocks)
DR9 -1.00 dB -10.84 dB 2:30 05-Who#039;ll Stop the Rain (Live at Red Rocks)
DR9 -1.08 dB -10.66 dB 2:12 06-Hey Tonight (Live at Red Rocks)
DR9 -1.08 dB -10.57 dB 2:25 07-Up Around the Bend (Live at Red Rocks)
DR8 -1.06 dB -10.34 dB 3:09 08-Rock and Roll Girls (Live at Red Rocks)
DR7 -1.00 dB -9.60 dB 8:17 09-I Heard It Through The Grapevine (Live at Red Rocks)
DR8 -1.00 dB -10.72 dB 3:44 10-Long As I Can See The Light (Live at Red Rocks)
DR9 -1.00 dB -10.87 dB 3:22 11-Run Through The Jungle (Live at Red Rocks)
DR9 -1.00 dB -11.09 dB 6:39 12-Keep On Chooglin#039; (Live at Red Rocks)
DR9 -1.00 dB -10.82 dB 2:31 13-Have You Ever Seen The Rain? (Live at Red Rocks)
DR9 -1.00 dB -10.59 dB 2:42 14-Down On The Corner (Live at Red Rocks)
DR9 -1.00 dB -11.56 dB 3:55 15-Centerfield (Live at Red Rocks)
DR9 -1.07 dB -11.22 dB 5:34 16-The Old Man Down The Road (Live at Red Rocks)
DR8 -1.00 dB -10.16 dB 2:49 17-Fortunate Son (Live at Red Rocks)
DR9 -1.00 dB -10.54 dB 2:10 18-Bad Moon Rising (Live at Red Rocks)
DR8 -1.00 dB -10.27 dB 3:38 19-Proud Mary (Live at Red Rocks)
--------------------------------------------------------------------------------
Number of tracks: 19
Official DR value: DR9
Samplerate: 44100 Hz
Channels: 2
Bits per sample: 24
Bitrate: 1646 kbps
Codec: FLAC
================================================================================

[fromtorrents.site].t69567.torrent 
Torrent: Registered [ 2019-11-08 17:10 ] · 598E41FE098AEF3BAA793F5414CA19FB356694EE

Download .torrent

18 KB

Status: checked
Completed: 0 times
Size: 814 MB
Rate: 
(Vote: 0)
Have thanked: 0  Thanks

Скачать через торрент John Fogerty - 50 Year Trip: Live at Red Rocks [24bit Hi-Res] (2019) FLAC в хорошем качестве бесплатно


terms.php
Display posts:    

Current time is: 18-Nov 13:48

All times are UTC + 4



You cannot post new topics in this forum
You cannot reply to topics in this forum
You cannot edit your posts in this forum
You cannot delete your posts in this forum
You cannot vote in polls in this forum
You cannot attach files in this forum
You can download files in this forum

Скачать через торрент фильмы 4K Ultra HD 2160p бесплатно, на первом свободном torrent трекере без надоедливой рекламы. Качаем без ограничений, рейтингов и прочих трудностей. Ищите любимый сериал, у нас вы найдёте множество сериалов, фильмов, игр, музыки. Скачать торрентом не составит труда даже не опытному пользователю. Все торрент файлы доступны к скачиванию любому пользователю бесплатно. Переходи на freetorrent и качай по полной без регистрации и ограничений. И не забудьте поделиться ссылкой на наш сайт - мы будем очень благодарны. Это даёт нам сил и заряда для жизни проекта.

Ежедневно в мир выходит столько новых картин, что уследить за всеми просто не представляется возможным. На нашем крупнейшем русскоязычном торрент трекере вы сможете без труда скачать фильмы 4к через торрент бесплатно новинки фильмов, не проходя утомительную регистрацию с подтверждением в смс, без назойливой рекламы и перехода по подозрительным ссылкам, все желаемые файлы находятся в открытом доступе и доступны к загрузке без начисления рейтинга. Скачать новинки выгодно не только в финансовом плане, любую загруженную киноленту можно посмотреть в удобное время и в высоком качестве. Самая лучшая подборка кино фильмов 60 fps | UHD 2160p | 4K утолит желание каждого киномана, каталог постоянно пополняется только лучшими релизами. У нас представлена огромная коллекция как недавно вышедших новинок, так и давно полюбившихся бестселлеров. Для того, чтобы получить файл, вам стоит лишь перейти на вкладку искомого материала и скачать нужный торрент и подождать, пока программа перенесет полнометражную картину на компьютер. Главная страница послужит путеводителем и афишей, где можно за несколько минут найти необходимое. Первый русский свободный торрент сделан с максимальным комфортом для пользователя, не нужно тратить время на изучение интерфейса. Желаем вам приятного просмотра! Постоянное обновление и пополнение - новинками популярных игр, новый и безопасный софт, мультимедиа кпк Свободный торрент трекер.